>

5.6

iTunes

6.1

MVO

5.7

MVO

1

7.4

1 сезон

6.8

iTunes

7.2

1 сезон

13

6.7

1 сезон

8.3

RePack

30

Deluxe

pack

9.9

Лицензия

ВАЖНО

ИГРА 18+

pack

7.3

RePack

MK11

7.7

RePack

jed

7.8

RePack

fifa19

8.5

RePack

RDR2

RePack

NEED FOR SPEED™ PAYBACK

4 сезон

9 сезон

Бесстыжие 9 сезон

Все сериалы

все сериалы на PB.wtf

RePack

FAR CRY 5

Anonymous, добрый день, мы катастрофически не успеваем собрать деньги на оплату серверов, помогите нам пожалуйста 5,10,15р., для нас важна любая помощь . В качестве благодарности мы отключим Вам всю рекламу на сайте (укажите свой ник в строку Ваше имя)!

×
  
Magnet ссылка

Чепелуэйт / Chapelwaite / Сезон: 1 / Серии: 1-6 из 10 (Бёрр Стирс, Джефф Ренфро, Рэйчел Лейтерман) [2021, Ужасы, драма, детектив, WEB-DL 1080p] MVO [AlexFilm] piratbit.org

Чепелуэйт через торрент piratbit.org

Раздают: 2 [ 0 KB/s ] Качают: 1 [ 0 KB/s ]
Размер: 15.98 GB | Добавлен: 3 д. назад | Торрент скачан:2 раза
Смотреть онлайн Чепелуэйт | Скачать    Ребята, помогите собрать деньги на оплату серверов!!!

24-08-2021 17:26 Чепелуэйт Скачать торрент  

Чепелуэйт | Chapelwaite
Год выпуска: 2021
Страна: США
Выпущено: Epix
Жанр: Ужасы, драма, детектив
Продолжительность: ~ 01:00:00
Перевод: Профессиональный (многоголосый) | AlexFilm
Субтитры: Английские (SDH)

Режиссер: Бёрр Стирс, Джефф Ренфро, Рэйчел Лейтерман, Дэвид Фрэйзи, Майкл Нанкин

rating

В ролях: Эдриан Броуди, Эмили Хэмпшир, Дженнифер Энс, Сирена Гуламгаус, Йен Хо, Трина Коркум, Горд Рэнд, Аллегра Фултон, Дин Армстронг, Себастьен Лабель, Вокс Смит, Майкл Хью, Гленн Лефчак, Джоэнн Боланд, Кристофер Хейердал, Чарли Риндресс, Дженни Рэймонд, Хью Томпсон, Лили Гао, Шон Скерри, Женевьева Дегрейвс, Девант Сениор, Акадия Колан, Дэвид Россетти, Джастин Колан

Описание: По мотивам рассказа Стивена Кинга «Поселение Иерусалим» (1978). Действие сериала происходит в Америке в 1850-е годы. Отставной капитан Чарльз Бун после смерти молодой жены переезжает с детьми в фамильный особняк Чепелуэйт в штате Мэн. Ему предстоит изучить историю своей семьи и вступить в борьбу с тёмными силами, контролирующими здание. В этом Буну поможет гувернантка его детей Ребекка Морган, которая хочет написать о тайнах Чепелуэйта роман.

Качество: WEB-DL 1080p
Формат: MKV

Видео: 1920x1080 (16:9), 23.976 fps, ~ 7000 Kbps
Аудио Rus: AC3, 48,0 kHz, 6 ch, 384 kbps | AlexFilm
Аудио Eng: AC3, 48,0 kHz, 6 ch, 640 kbps | Original
скриншот  скриншот  скриншот  скриншот  

Complete name : D:Chapelwaite_(s01)_AlexFilm_1080pChapelwaite.2021.S01E01.Blood.Calls.Blood.1080p.AMZN.WEB-DL.DD5.1.x264-FLUX_EniaHD.mkv
Format : Matroska
Format version : Version 4
File size : 3.38 GiB
Duration : 1 h 0 min
Overall bit rate : 8 044 kb/s
Encoded date : UTC 2021-08-24 14:23:22
Writing application : mkvmerge v58.0.0 ('Supper's Ready') 64-bit
Writing library : libebml v1.4.2 + libmatroska v1.6.4

Video
ID : 1
Format : AVC
Format/Info : Advanced Video Codec
Format profile : High@L4
Format settings : CABAC / 4 Ref Frames
Format settings, CABAC : Yes
Format settings, Reference : 4 frames
Codec ID : V_MPEG4/ISO/AVC
Duration : 1 h 0 min
Bit rate mode : Constant
Bit rate : 7 018 kb/s
Nominal bit rate : 10 000 kb/s
Width : 1 920 pixels
Height : 1 080 pixels
Display aspect ratio : 16:9
Frame rate mode : Constant
Frame rate : 23.976 (24000/1001) FPS
Color space : YUV
Chroma subsampling : 4:2:0
Bit depth : 8 bits
Scan type : Progressive
Bits/(Pixel*Frame) : 0.141
Stream size : 2.95 GiB (87%)
Title : Release by EniaHD
Default : Yes
Forced : No
Color range : Limited
Color primaries : BT.709
Transfer characteristics : BT.709
Matrix coefficients : BT.709

Audio #1
ID : 2
Format : AC-3
Format/Info : Audio Coding 3
Commercial name : Dolby Digital
Codec ID : A_AC3
Duration : 1 h 0 min
Bit rate mode : Constant
Bit rate : 384 kb/s
Channel(s) : 6 channels
Channel layout : L R C LFE Ls Rs
Sampling rate : 48.0 kHz
Frame rate : 31.250 FPS (1536 SPF)
Compression mode : Lossy
Stream size : 165 MiB (5%)
Title : AlexFilm
Language : Russian
Service kind : Complete Main
Default : Yes
Forced : No

Audio #2
ID : 3
Format : AC-3
Format/Info : Audio Coding 3
Commercial name : Dolby Digital
Codec ID : A_AC3
Duration : 1 h 0 min
Bit rate mode : Constant
Bit rate : 640 kb/s
Channel(s) : 6 channels
Channel layout : L R C LFE Ls Rs
Sampling rate : 48.0 kHz
Frame rate : 31.250 FPS (1536 SPF)
Compression mode : Lossy
Stream size : 276 MiB (8%)
Language : English
Service kind : Complete Main
Default : No
Forced : No

Text #1
ID : 4
Format : UTF-8
Codec ID : S_TEXT/UTF8
Codec ID/Info : UTF-8 Plain Text
Duration : 56 min 53 s
Bit rate : 41 b/s
Count of elements : 600
Stream size : 17.4 KiB (0%)
Title : Full
Language : English
Default : No
Forced : No

Text #2
ID : 5
Format : UTF-8
Codec ID : S_TEXT/UTF8
Codec ID/Info : UTF-8 Plain Text
Duration : 57 min 56 s
Bit rate : 44 b/s
Count of elements : 689
Stream size : 18.8 KiB (0%)
Title : SDH
Language : English
Default : No
Forced : No

Внимание! Раздача ведётся путём добавления новых серий; при каждом добавлении создаётся новый торрент.
Чтобы начать докачку новой серии, пользователям необходимо сделать следующее:
1. Остановить скачивание;
2. Удалить старый торрент у себя из клиента (старые серии удалять не надо);
3. Скачать новый торрент и запустить его у себя в клиенте вместо старого, при этом указать клиенту путь в старую папку куда и должно происходить скачивание новых серий. Ваш клиент при этом должен произвести хеширование (проверку) старой папки и будет докачивать только те серии, которых у вас ещё нет. Старые серии при этом не удаляются, а продолжают раздаваться! Eсли вы уже удалили старые серии, то предотвратить повторную закачку старых серий можно, отжав галочку в соответствующих местах при запуске нового торрента.

piratbit.org



Скачать Чепелуэйт через торрент https://b.radikal.ru/b00/2108/80/a2b6056bab24.png Скачать, смотреть онлайн Чепелуэйт бесплантно в хорошем качестве Описание: По мотивам рассказа Стивена Кинга «Поселение Иерусалим» (1978). Действие сериала происходит в Америке в 1850-е годы. Отставной ... 8.7 10 6
Торрент: Зарегистрирован [2021-09-21 04:19] · скачан: 2 раз
Статус: √ проверено
Размер: 15.98 GB
Как cкачать? Как скачать Чепелуэйт через торрент | UTorrent

% Раздел Тема Автор DL S | L
Зарубежные сериалы [ 15.98 GB ] Чепелуэйт / Chapelwaite / Сезон: 1 / Серии: 1-6 из 10 [2021 WEB-DL 1080p] MVO [Кириллица / Amedia] bober100 Скачать
3 | 3
Зарубежные сериалы [ 15.98 GB ] Чепелуэйт / Chapelwaite / Сезон: 1 / Серии: 1-6 из 10 [2021 WEB-DL 1080p] MVO [LostFilm] bober100 Скачать
5 | 2
Зарубежные сериалы [ 9.18 GB ] Чепелуэйт / Chapelwaite / Сезон: 1 / Серии: 1-6 из 10 [2021 WEB-DL 720p] 3x[MVO] killermax2013 Скачать
2 | 1

28-11-2019 20:33  

Отключить всю рекламу на сайте

    Дорогой пользователь! Огромная просьба, поблагодарите релизера, оцените раздачу и оставьте свои комментарий, если Вы скачали Чепелуэйт через торрент бесплатно!
    Комментировать посты могут только пользователи прошедшие не сложную регистрацию
    Показать сообщения:    

    Чепелуэйт через торрент
    Скачать бесплатно Чепелуэйт
    Чепелуэйт скачать торрент
    Чепелуэйт смотреть онлайн
    Cкачать фильм Чепелуэйт бесплатно
    Чепелуэйт скачать торрент в хорошем качестве
    Чепелуэйт смотреть онлайн бесплатно в хорошем качестве


    Вы не можете начинать темы
    Вы не можете отвечать на сообщения
    Вы не можете редактировать свои сообщения
    Вы не можете удалять свои сообщения
    Вы не можете голосовать в опросах
    Вы не можете прикреплять файлы к сообщениям
    Вы можете скачивать файлы