Присоединяйтесь к нам в Telegram!, здесь всегда актуальный адрес сайта, оперативная поддержка и многое другое!!

>

5.9

iTunes

7.4

iTunes

9.4

1 сезон

1

7.4

2 сезон

7.2

iTunes

7.3

iTunes

13

6.1

iTunes

8.3

Пиратка

30

ULTIMATE

pack

9.9

Лицензия

ВАЖНО

ИГРА 18+

pack

7.3

RePack

MK11

7.7

RePack

jed

7.8

RePack

fifa19

8.5

RePack

RDR2

RePack

NEED FOR SPEED™ PAYBACK

5 сезон

9 сезон

Бесстыжие 9 сезон

Все сериалы

все сериалы на PB.wtf

RePack

FAR CRY 5

Anonymous, добрый вечер, мы катастрофически не успеваем собрать деньги на оплату серверов, помогите нам пожалуйста 5,10,15р., для нас важна любая помощь . В качестве благодарности мы отключим Вам всю рекламу на сайте (укажите свой ник в строку Ваше имя)!

×
  
Magnet ссылка

Американская история ужасов / American Horror Story / Сезон: 10 / Серия: 1-10 из 10 (Брэдли Букер, Альфонсо Гомес-Рехон, Майкл Аппендаль) [2021, Ужасы, триллер, драма, WEBRip 1080p] MVO [TVShows] piratbit.org

Американская история ужасов через торрент piratbit.org

Размер: 11.35 GB | Добавлен: 1 мес. 16 д. назад | Торрент скачан:18 раз
Смотреть онлайн Американская история ужасов | Скачать    Ребята, помогите собрать деньги на оплату серверов!!!

29-08-2021 10:02 Американская история ужасов Скачать торрент  

Американская история ужасов | American Horror Story
• Год выпуска: 2021
• Страна: США
• Студия: 20th Century Fox Television, Brad Falchuk Teley-Vision, Ryan Murphy Productions
• Жанр: Ужасы, триллер, драма
• Продолжительность: ~00:49:00
• Перевод: Профессиональный (многоголосый закадровый) | TVShows
• Субтитры: отсутствуют

• Режиссёр: Брэдли Букер, Альфонсо Гомес-Рехон, Майкл Аппендаль

В ролях: Сара Полсон, Эван Питерс, Кэти Бэйтс, Билли Лурд, Финн Уиттрок, Лили Рабе, Адина Портер, Анджелика Росс, Маколей Калкин и Лесли Гроссман и другие.

Описание: Новая глава шоу будет тематически разделена на две части (отсюда и название сезона — «Двойной сеанс»). Первая, «Красный прилив», будет состоять из шести эпизодов, вторая, «Долина смерти», — из четырех. «Прилив» расскажет о семье из трех человек, переехавшей в Провинстаун, штат Массачусетс, который расположен прямо на берегу океана. Муж страдает от писательского блока и никак не может продвинуться в написании новой книги, жена ждет второго ребенка и начинает чувствовать себя странно в городе, а местные жители, тем временем, скрывают свои зловещие секреты.

rating

• Качество: WEBRip 1080p
• Формат: MKV

• Видео: MPEG-4 AVC, 1920x1080 (16:9), 23.976 fps, ~ 3000 kbps, 0.061 bit/pixel
• Аудио: AC3, 48,0 kHz, 6 ch, 448 kbps | TVShows
скриншот  скриншот  скриншот  скриншот  

Общее
Уникальный идентификатор : 182185893522850709003107982014805439031 (0x890FBA0E2080539897D9BD1B6BE7F237)
Полное имя : D:\American.Horror.Story.S10.1080p.FilmsClub.TVShows\American.Horror.Story.S10E01.1080p.FilmsClub.TVShows.mkv
Формат : Matroska
Версия формата : Version 2
Размер файла : 1,26 Гбайт
Продолжительность : 50 м. 41 с.
Общий поток : 3 558 Кбит/сек
Дата кодирования : UTC 2021-08-29 08:10:35
Программа кодирования : mkvmerge v6.1.0 ('Old Devil') built on Mar 4 2013 09:10:42
Библиотека кодирования : libebml v1.3.0 + libmatroska v1.4.0

Видео
Идентификатор : 1
Формат : AVC
Формат/Информация : Advanced Video Codec
Профиль формата : High@L4.1
Настройки формата : CABAC / 4 Ref Frames
Параметр CABAC формата : Да
Параметр RefFrames формата : 4 кадра
Идентификатор кодека : V_MPEG4/ISO/AVC
Продолжительность : 50 м. 41 с.
Битрейт : 3 039 Кбит/сек
Ширина : 1 920 пикселей
Высота : 1 080 пикселей
Соотношение сторон : 16:9
Режим частоты кадров : Постоянный
Частота кадров : 23,976 (24000/1001) кадра/сек
Цветовое пространство : YUV
Субдискретизация насыщенности : 4:2:0
Битовая глубина : 8 бит
Тип развёртки : Прогрессивная
Бит/(Пиксели*Кадры) : 0.061
Размер потока : 1,08 Гбайт (85%)
Библиотека кодирования : x264 core 155 r2917 0a84d98
Настройки программы : cabac=1 / ref=3 / deblock=1:0:0 / analyse=0x3:0x113 / me=hex / subme=7 / psy=1 / psy_rd=1.00:0.00 / mixed_ref=1 / me_range=16 / chroma_me=1 / trellis=1 / 8x8dct=1 / cqm=0 / deadzone=21,11 / fast_pskip=1 / chroma_qp_offset=-2 / threads=34 / lookahead_threads=5 / sliced_threads=0 / nr=0 / decimate=1 / interlaced=0 / bluray_compat=0 / constrained_intra=0 / bframes=3 / b_pyramid=2 / b_adapt=1 / b_bias=0 / direct=1 / weightb=1 / open_gop=0 / weightp=2 / keyint=250 / keyint_min=23 / scenecut=0 / intra_refresh=0 / rc_lookahead=40 / rc=crf / mbtree=1 / crf=20.0 / qcomp=0.60 / qpmin=0 / qpmax=69 / qpstep=4 / ip_ratio=1.40 / aq=1:1.00
Default : Да
Forced : Нет

Аудио
Идентификатор : 2
Формат : AC-3
Формат/Информация : Audio Coding 3
Коммерческое название : Dolby Digital
Идентификатор кодека : A_AC3
Продолжительность : 50 м. 41 с.
Вид битрейта : Постоянный
Битрейт : 448 Кбит/сек
Каналы : 6 каналов
Channel layout : L R C LFE Ls Rs
Частота : 48,0 КГц
Частота кадров : 31,250 кадров/сек (1536 SPF)
Метод сжатия : С потерями
Размер потока : 162 Мбайт (13%)
Service kind : Complete Main
Default : Да
Forced : Нет

Внимание! Раздача ведётся путём добавления новых серий; при каждом добавлении создаётся новый торрент.
Чтобы начать докачку новой серии, пользователям необходимо сделать следующее:
1. Остановить скачивание;
2. Удалить старый торрент у себя из клиента (старые серии удалять не надо);
3. Скачать новый торрент и запустить его у себя в клиенте вместо старого, при этом указать клиенту путь в старую папку куда и должно происходить скачивание новых серий. Ваш клиент при этом должен произвести хеширование (проверку) старой папки и будет докачивать только те серии, которых у вас ещё нет. Старые серии при этом не удаляются, а продолжают раздаваться! Eсли вы уже удалили старые серии, то предотвратить повторную закачку старых серий можно, отжав галочку в соответствующих местах при запуске нового торрента.

piratbit.org



Скачать Американская история ужасов через торрент https://i115.fastpic.org/big/2021/0829/18/00a482d37a2b3cdef79584ae53ba2618.jpg Скачать, смотреть онлайн Американская история ужасов бесплантно в хорошем качестве Описание: Новая глава шоу будет тематически разделена на две части (отсюда и название сезона — «Двойной сеанс»). Первая, «Красный прилив», ... 9.8 10 4
Info! Золотая раздача, скачанное не засчитывается.
Торрент: Зарегистрирован [2021-10-23 15:59] · скачан: 18 раз
Статус: √ проверено
Размер: 11.35 GB
Как cкачать? Как скачать Американская история ужасов через торрент | UTorrent

% Раздел Тема Автор DL S | L
Американская история ужасов [ 8.41 GB ] Американская история ужасов / American Horror Story / Сезон: 10 / Серии: 1-10 из 10 [2021 WEB-DLRip-AVC] MVO [LostFilm] от MediaBit Lithuania Скачать
2 | 1
Американская история ужасов [ 13.26 GB ] Американская история ужасов / American Horror Story / Сезон: 10 / Серия: 1-10 из 10 [2021 WEB-DL 720p] MVO [LostFilm] bober100 Скачать
2 | 0
Американская история ужасов [ 31.4 GB ] Американская история ужасов: Двойной сеанс / American Horror Story: Double Feature / Сезон: 10 / Серия: 1-10 из 10 [2021 WEB-DL 1080p] MVO [LostFilm] bober100 Скачать
4 | 1
Американская история ужасов [ 8.89 GB ] Американские истории ужасов / American Horror Stories / Сезон: 1 / Серии: 1-7 из 7 [2021 WEB-DL 1080p] 3xMVO [LostFilm NewStudio TVShows] bober100 Скачать
3 | 0
Американская история ужасов [ 57.39 GB ] Американская история ужасов / American Horror Story / Сезон: 1-9 / Серии: 1-103 из 103 [2011-2019 WEB-DLRip] MVO [LostFilm] bober100 Скачать
1 | 0
Американская история ужасов [ 22.13 GB ] Американская история ужасов / American Horror Story / Сезон: 9 / Серии: 1-9 из 9 [2019 WEB-DL 1080p] MVO [Jaskier] bober100 Скачать
1 | 0
Американская история ужасов [ 23.48 GB ] Американская история ужасов / American Horror Story / Сезон: 9 / Серия: 1-9 из 9 [2019 WEB-DL 1080p] MVO [LostFilm] bober100 Скачать
1 | 0

28-11-2019 20:33  

Отключить всю рекламу на сайте

    Дорогой пользователь! Огромная просьба, поблагодарите релизера, оцените раздачу и оставьте свои комментарий, если Вы скачали Американская история ужасов через торрент бесплатно!
    Комментировать посты могут только пользователи прошедшие не сложную регистрацию
    Показать сообщения:    

    Американская история ужасов через торрент
    Скачать бесплатно Американская история ужасов
    Американская история ужасов скачать торрент
    Американская история ужасов смотреть онлайн
    Cкачать фильм Американская история ужасов бесплатно
    Американская история ужасов скачать торрент в хорошем качестве
    Американская история ужасов смотреть онлайн бесплатно в хорошем качестве


    Вы не можете начинать темы
    Вы не можете отвечать на сообщения
    Вы не можете редактировать свои сообщения
    Вы не можете удалять свои сообщения
    Вы не можете голосовать в опросах
    Вы не можете прикреплять файлы к сообщениям
    Вы можете скачивать файлы