>

5.6

iTunes

6.1

MVO

5.7

MVO

1

7.4

1 сезон

6.8

iTunes

7.2

1 сезон

13

6.7

1 сезон

8.3

RePack

30

Deluxe

pack

9.9

Лицензия

ВАЖНО

ИГРА 18+

pack

7.3

RePack

MK11

7.7

RePack

jed

7.8

RePack

fifa19

8.5

RePack

RDR2

RePack

NEED FOR SPEED™ PAYBACK

4 сезон

9 сезон

Бесстыжие 9 сезон

Все сериалы

все сериалы на PB.wtf

RePack

FAR CRY 5

Anonymous, добрый день, мы катастрофически не успеваем собрать деньги на оплату серверов, помогите нам пожалуйста 5,10,15р., для нас важна любая помощь . В качестве благодарности мы отключим Вам всю рекламу на сайте (укажите свой ник в строку Ваше имя)!

×
  
Magnet ссылка

Патриот / Сезон: 2 / Серии: 1-20 из 20 (Николай Бурлак) [2021, Комедия, SATRip] piratbit.org

Патриот через торрент piratbit.org

Раздают: 6 [ 0 KB/s ] Качают: 6 [ 4 KB/s ]
Размер: 5.87 GB | Добавлен: 7 д. назад | Торрент скачан:16 раз
Смотреть онлайн Патриот | Скачать    Ребята, помогите собрать деньги на оплату серверов!!!

30-08-2021 11:43 Патриот Скачать торрент  

Патриот 2
Год выпуска: 2021
Страна: Россия
Жанр: Комедия
Продолжительность: ~ 00:25:00 серия
Перевод: Не требуется
Субтитры: отсутствуют

Режиссер: Николай Бурлак

rating

В ролях: Антон Жижин, Алёна Савастова, Анастасия Талызина, Владимир Сычёв, Настасья Самбурская, Алексей Базанов, Валентина Лукащук, Антон Никушин, Юлия Полынская, Евгения Капралова, Василий Березин, Владимир Афанасьев, Георгий Бергал

Описание: Саня приезжает домой из академии ФСБ вместе с товарищем по учебе. Этот «товарищ» оказывается девушкой Айзой, которая по физическим характеристикам даже превосходит Кучина. Был один патриот – стало два патриота. Жена главного героя Катя в бешенстве, она не понимает, что происходит. Саня верит в «братскую» дружбу между мужчиной и женщиной, Катя хочет избавиться от этого «товарища», а тем временем Ленка запустила свой мелкий бизнес с продукцией для знаменитостей и хочет быстрее выплатить отцу остатки долга за свою учёбу. Вдобавок на плечи главного героя сваливаются заботы о магазине, потому что его хозяин внезапно отъехал в больничку. Патриот остается за главного!

Качество: SATRip
Формат: AVI

Видео: XviD, ~ 1650 Кбит/с, 720x344, 704x328
Аудио: MP3, 2 ch, 192 Кбит/с
скриншот  скриншот  скриншот  

Общее
Полное имя : D:\Patriot.S02.XviD.SATRip.25Kuzmich\Patriot.s02.s01.XviD.SATRip.25Kuzmich.avi
Формат : AVI
Формат/Информация : Audio Video Interleave
Размер файла : 300 Мбайт
Продолжительность : 22 м. 39 с.
Общий поток : 1 852 Кбит/сек
Программа кодирования : VirtualDubMod 1.5.10.3 | www.virtualdub-fr.org || (build 2550/release)
Библиотека кодирования : VirtualDubMod build 2550/release

Видео
Идентификатор : 0
Формат : MPEG-4 Visual
Профиль формата : Advanced Simple@L5
Настройки формата : BVOP1
Параметр BVOP формата : 1
Параметр QPel формата : Нет
Параметр GMC формата : Без точки перехода
Параметр матрицы формата : Default (MPEG)
Идентификатор кодека : XVID
Идентификатор кодека/Подсказка : XviD
Продолжительность : 22 м. 39 с.
Битрейт : 1 650 Кбит/сек
Ширина : 704 пикселя
Высота : 336 пикселей
Соотношение сторон : 2,095
Частота кадров : 25,000 кадров/сек
Цветовое пространство : YUV
Субдискретизация насыщенности : 4:2:0
Битовая глубина : 8 бит
Тип развёртки : Прогрессивная
Метод сжатия : С потерями
Бит/(Пиксели*Кадры) : 0.279
Размер потока : 267 Мбайт (89%)
Библиотека кодирования : XviD 73

Аудио
Идентификатор : 1
Формат : MPEG Audio
Версия формата : Version 1
Профиль формата : Layer 3
Настройки формата : Joint stereo / MS Stereo
Идентификатор кодека : 55
Идентификатор кодека/Подсказка : MP3
Продолжительность : 22 м. 39 с.
Вид битрейта : Постоянный
Битрейт : 192 Кбит/сек
Каналы : 2 канала
Частота : 48,0 КГц
Частота кадров : 41,667 кадра/сек (1152 SPF)
Метод сжатия : С потерями
Размер потока : 31,1 Мбайт (10%)
Выравнивание : Соединение по промежуткам
Продолжительность промежутка : 40 мс. (1,00 видеокадр)
Время предзагрузки промежутка : 504 мс.
Библиотека кодирования : LAME3.99r
Настройки программы : -m j -V 4 -q 2 -lowpass 18.6 -b 192

(1) остановить скачивание,
(2) удалить старый торрент у себя из клиента (старые серии удалять не надо),
(3) скачать новый торрент и запустить его у себя в клиенте вместо старого, при этом указать клиенту путь в старую папку куда и должно происходить скачивание новых серий.
Ваш клиент при этом должен произвести хеширование (проверку) старой папки (если не производит сам - помогите ему сделать это), и будет докачивать только те серии которых у вас ещё нет. Старые серии при этом не удаляются, а продолжают раздаваться!
Eсли вы уже удалили старые серии, то предотвратить повторную закачку старых серий можно, отжав галочку в соответсвующих местах при запуске нового торрента. По возможности, желательно не удалять старые серии как можно дольше чтобы релизёр не столько продолжал раздавать старые серии, а смог сконцентрироваться на новых.
piratbit.org



Скачать Патриот через торрент https://i115.fastpic.org/big/2021/0830/47/ff9ac15ed976cbecfb14ecc7ccae1b47.jpg Скачать, смотреть онлайн Патриот бесплантно в хорошем качестве Описание: Саня приезжает домой из академии ФСБ вместе с товарищем по учебе. Этот «товарищ» оказывается девушкой Айзой, которая по ... 9.6 10 21
Торрент: Зарегистрирован [2021-09-16 19:19] · скачан: 16 раз
Статус: √ проверено
Размер: 5.87 GB
Как cкачать? Как скачать Патриот через торрент | UTorrent

% Раздел Тема Автор DL S | L
TNT serials [ 5.73 GB ] Патриот / Сезон: 2 / Серии: 1-20 из 20 [2021 WEBRip-AVC] bober100 Скачать
12 | 4
TNT serials [ 6.15 GB ] Патриот / Сезон: 2 / Серии: 1-20 из 20 + Фильм о фильме [2021 WEBRip] bober100 Скачать
16 | 5
TNT serials [ 10.45 GB ] Патриот / Сезон: 2 / Серии: 1-20 из 20 + Фильм о фильме [2021 WEBRip 720p] bober100 Скачать
6 | 8
TNT serials [ 15.37 GB ] Патриот / Сезон: 2 / Серии: 1-20 из 20 + Фильм о фильме [2021 WEBRip 1080p] bober100 Скачать
8 | 1
Зарубежные сериалы [ 10.24 GB ] Патриот / Patriot / Сезон: 2 / Серии: 1-8 из 8 [2018 WEB-DLRip 720p] [MVO] killermax2013 Скачать
2 | 0
Зарубежные сериалы [ 12.11 GB ] Патриот / Patriot / Сезон: 2 / Серии: 1-8 из 8 [2018 WEBRip 1080p] MVO [TVShows] bober100 Скачать
1 | 0


Последний раз редактировалось: bober100 (2021-09-16 19:19), всего редактировалось 14 раз(а)

28-11-2019 20:33  

Отключить всю рекламу на сайте

30-08-2021 15:50 Патриот Скачать торрент  

дождался piratbit.org



    Дорогой пользователь! Огромная просьба, поблагодарите релизера, оцените раздачу и оставьте свои комментарий, если Вы скачали Патриот через торрент бесплатно!
    Комментировать посты могут только пользователи прошедшие не сложную регистрацию
    Показать сообщения:    

    Патриот через торрент
    Скачать бесплатно Патриот
    Патриот скачать торрент
    Патриот смотреть онлайн
    Cкачать фильм Патриот бесплатно
    Патриот скачать торрент в хорошем качестве
    Патриот смотреть онлайн бесплатно в хорошем качестве


    Вы не можете начинать темы
    Вы не можете отвечать на сообщения
    Вы не можете редактировать свои сообщения
    Вы не можете удалять свои сообщения
    Вы не можете голосовать в опросах
    Вы не можете прикреплять файлы к сообщениям
    Вы можете скачивать файлы