>

5.6

iTunes

6.1

MVO

5.7

MVO

1

7.4

1 сезон

6.8

iTunes

7.2

1 сезон

13

6.7

1 сезон

8.3

RePack

30

Deluxe

pack

9.9

Лицензия

ВАЖНО

ИГРА 18+

pack

7.3

RePack

MK11

7.7

RePack

jed

7.8

RePack

fifa19

8.5

RePack

RDR2

RePack

NEED FOR SPEED™ PAYBACK

4 сезон

9 сезон

Бесстыжие 9 сезон

Все сериалы

все сериалы на PB.wtf

RePack

FAR CRY 5

Anonymous, добрый вечер, мы катастрофически не успеваем собрать деньги на оплату серверов, помогите нам пожалуйста 5,10,15р., для нас важна любая помощь . В качестве благодарности мы отключим Вам всю рекламу на сайте (укажите свой ник в строку Ваше имя)!

×
  
Magnet ссылка

Патриот / Сезон: 2 / Серии: 1-20 из 20 + Фильм о фильме (Николай Бурлак) [2021, Комедия, WEBRip 1080p] piratbit.org

Патриот через торрент piratbit.org

Раздают: 7 [ 111 KB/s ] Качают: 2 [ 0 KB/s ]
Размер: 15.37 GB | Добавлен: 2 д. 23 ч. назад | Торрент скачан:19 раз
Смотреть онлайн Патриот | Скачать    Ребята, помогите собрать деньги на оплату серверов!!!

30-08-2021 17:50 Патриот Скачать торрент  

Патриот 2
Год выпуска: 2021
Страна: Россия
Жанр: Комедия
Продолжительность: ~ 00:25:00 серия
Перевод: Не требуется
Субтитры: отсутствуют

Режиссер: Николай Бурлак

rating

В ролях: Антон Жижин, Алёна Савастова, Анастасия Талызина, Владимир Сычёв, Настасья Самбурская, Алексей Базанов, Валентина Лукащук, Антон Никушин, Юлия Полынская, Евгения Капралова, Василий Березин, Владимир Афанасьев, Георгий Бергал

Описание: Саня приезжает домой из академии ФСБ вместе с товарищем по учебе. Этот «товарищ» оказывается девушкой Айзой, которая по физическим характеристикам даже превосходит Кучина. Был один патриот – стало два патриота. Жена главного героя Катя в бешенстве, она не понимает, что происходит. Саня верит в «братскую» дружбу между мужчиной и женщиной, Катя хочет избавиться от этого «товарища», а тем временем Ленка запустила свой мелкий бизнес с продукцией для знаменитостей и хочет быстрее выплатить отцу остатки долга за свою учёбу. Вдобавок на плечи главного героя сваливаются заботы о магазине, потому что его хозяин внезапно отъехал в больничку. Патриот остается за главного!

Качество: WEBRip 1080p
Формат: MKV

Видео: MPEG-4 AVC, 1920x912, ~ 3000 Кбит/с, 0.100 bit/pixel, 25 Кадр/с
Аудио: 48.0 kHz, AC3 Dolby Digital, 2/0 (L,R) ch, ~ 192 kbps
скриншот  скриншот  скриншот  скриншот  скриншот  

Общее
Уникальный идентификатор : 186216893157422672364005733077142238136 (0x8C1811AE752E980AB4BD0E515EB873B8)
Полное имя : D:\Patriot.S02.2021.WEB-DL.(1080p).Getty\Patriot.s02e01.2021.WEB-DL.(1080p).Getty.mkv
Формат : Matroska
Версия формата : Version 4
Размер файла : 768 Мбайт
Продолжительность : 23 м. 24 с.
Режим общего битрейта : Переменный
Общий поток : 4 586 Кбит/сек
Название фильма : Patriot.s02e01.2021.WEB-DL.(1080p).Getty
Дата кодирования : UTC 2021-08-30 17:31:16
Программа кодирования : mkvmerge v7.8.0 ('River Man') 32bit built on Mar 27 2015 16:18:02
Библиотека кодирования : libebml v1.3.1 + libmatroska v1.4.2

Видео
Идентификатор : 1
Формат : AVC
Формат/Информация : Advanced Video Codec
Профиль формата : High@L4
Настройки формата : CABAC / 1 Ref Frames
Параметр CABAC формата : Да
Параметр RefFrames формата : 1 кадр
Параметр GOP формата : M=1, N=50
Идентификатор кодека : V_MPEG4/ISO/AVC
Продолжительность : 23 м. 24 с.
Вид битрейта : Переменный
Битрейт : 4 392 Кбит/сек
Максимальный битрейт : 4 500 Кбит/сек
Ширина : 1 920 пикселей
Высота : 912 пикселей
Соотношение сторон : 2,087
Режим частоты кадров : Постоянный
Частота кадров : 25,000 кадров/сек
Цветовое пространство : YUV
Субдискретизация насыщенности : 4:2:0
Битовая глубина : 8 бит
Тип развёртки : Прогрессивная
Бит/(Пиксели*Кадры) : 0.100
Размер потока : 736 Мбайт (96%)
Default : Да
Forced : Нет

Аудио
Идентификатор : 2
Формат : AC-3
Формат/Информация : Audio Coding 3
Коммерческое название : Dolby Digital
Идентификатор кодека : A_AC3
Продолжительность : 23 м. 24 с.
Вид битрейта : Постоянный
Битрейт : 192 Кбит/сек
Каналы : 2 канала
Channel layout : L R
Частота : 48,0 КГц
Частота кадров : 31,250 кадров/сек (1536 SPF)
Метод сжатия : С потерями
Размер потока : 32,2 Мбайт (4%)
Service kind : Complete Main
Default : Да
Forced : Нет

(1) остановить скачивание,
(2) удалить старый торрент у себя из клиента (старые серии удалять не надо),
(3) скачать новый торрент и запустить его у себя в клиенте вместо старого, при этом указать клиенту путь в старую папку куда и должно происходить скачивание новых серий.
Ваш клиент при этом должен произвести хеширование (проверку) старой папки (если не производит сам - помогите ему сделать это), и будет докачивать только те серии которых у вас ещё нет. Старые серии при этом не удаляются, а продолжают раздаваться!
Eсли вы уже удалили старые серии, то предотвратить повторную закачку старых серий можно, отжав галочку в соответсвующих местах при запуске нового торрента. По возможности, желательно не удалять старые серии как можно дольше чтобы релизёр не столько продолжал раздавать старые серии, а смог сконцентрироваться на новых.
piratbit.org



Скачать Патриот через торрент https://i115.fastpic.org/big/2021/0830/47/ff9ac15ed976cbecfb14ecc7ccae1b47.jpg Скачать, смотреть онлайн Патриот бесплантно в хорошем качестве Описание: Саня приезжает домой из академии ФСБ вместе с товарищем по учебе. Этот «товарищ» оказывается девушкой Айзой, которая по ... 9.2 10 11
Торрент: Зарегистрирован [2021-09-22 16:53] · скачан: 19 раз
Статус: √ проверено
Размер: 15.37 GB
Как cкачать? Как скачать Патриот через торрент | UTorrent

% Раздел Тема Автор DL S | L
TNT serials [ 6.15 GB ] Патриот / Сезон: 2 / Серии: 1-20 из 20 + Фильм о фильме [2021 WEBRip] bober100 Скачать
16 | 5
TNT serials [ 10.45 GB ] Патриот / Сезон: 2 / Серии: 1-20 из 20 + Фильм о фильме [2021 WEBRip 720p] bober100 Скачать
7 | 4

28-11-2019 20:33  

Отключить всю рекламу на сайте

    Дорогой пользователь! Огромная просьба, поблагодарите релизера, оцените раздачу и оставьте свои комментарий, если Вы скачали Патриот через торрент бесплатно!
    Комментировать посты могут только пользователи прошедшие не сложную регистрацию
    Показать сообщения:    

    Патриот через торрент
    Скачать бесплатно Патриот
    Патриот скачать торрент
    Патриот смотреть онлайн
    Cкачать фильм Патриот бесплатно
    Патриот скачать торрент в хорошем качестве
    Патриот смотреть онлайн бесплатно в хорошем качестве


    Вы не можете начинать темы
    Вы не можете отвечать на сообщения
    Вы не можете редактировать свои сообщения
    Вы не можете удалять свои сообщения
    Вы не можете голосовать в опросах
    Вы не можете прикреплять файлы к сообщениям
    Вы можете скачивать файлы