>

5.6

iTunes

6.1

MVO

5.7

MVO

1

7.4

1 сезон

6.8

iTunes

7.2

1 сезон

13

6.7

1 сезон

8.3

RePack

30

Deluxe

pack

9.9

Лицензия

ВАЖНО

ИГРА 18+

pack

7.3

RePack

MK11

7.7

RePack

jed

7.8

RePack

fifa19

8.5

RePack

RDR2

RePack

NEED FOR SPEED™ PAYBACK

4 сезон

9 сезон

Бесстыжие 9 сезон

Все сериалы

все сериалы на PB.wtf

RePack

FAR CRY 5

Anonymous, добрый день, мы катастрофически не успеваем собрать деньги на оплату серверов, помогите нам пожалуйста 5,10,15р., для нас важна любая помощь . В качестве благодарности мы отключим Вам всю рекламу на сайте (укажите свой ник в строку Ваше имя)!

×
  
Magnet ссылка

Охотники на троллей: Восстание титанов / Trollhunters: Rise of the Titans (Йохана Матте, Франциско Руис Веласко, Эндрю Л. Шмидт) [2021 г., Мультфильм, фэнтези, комедия, семейный, WEB-DLRip 720p / 60 FPS, Дубляж] от R.G. HD-Films piratbit.org

Охотники на троллей: Восстание титанов через торрент piratbit.org

Раздают: 7 [ 0 KB/s ]
Размер: 4.24 GB | Добавлен: 19 д. назад | Торрент скачан:66 раз
Смотреть онлайн Охотники на троллей: Восстание титанов | Скачать    Ребята, помогите собрать деньги на оплату серверов!!!

05-09-2021 10:17 Охотники на троллей: Восстание титанов Скачать торрент  

Охотники на троллей: Восстание титанов / Trollhunters: Rise of the Titans
Год выпуска: 2021
Страна: США, Мексика
Жанр: Мультфильм, фэнтези, боевик, драма, комедия, приключения, семейный
Продолжительность: 01:46:17
Перевод: Дубляж - Netflix
Субтитры: Русские форсированные (стилизованные, на надписи и прочее) - вшитые; Русские (полные), английские (форсированные, полные)

Режиссер: Йохана Матте, Франциско Руис Веласко, Эндрю Л. Шмидт

Премьера в мире: 21 июля 2021

rating

Роли озвучивали: Татьяна Маслани, Эмиль Хирш, Ник Офферман, Альфред Молина, Грэй Гриффин, Стивен Ян, Келси Грэммер, Ник Фрост, Диего Луна, Джеймс Хун

Описание: Возможно, Аркадия выглядит как обычный город, но она находится на пересечении волшебных и мистических линий, поэтому оказывается в гуще событий, когда между неземными существами — троллями, инопланетянами и магами — возникают раздоры. Герои объединяются, чтобы победить Тайный орден в эпической битве и обрести Влacть над магией, которая всех связывает.

Качество: WEB-DLRip 720p / 60 FPS
Формат: MKV
Видео кодек: H.264
Аудио кодек: AC3
Видео: x264, 1280 x 720 ( 16:9 ), 5324 kbps, 60,000 fps, ( 0.096 bpp)
Аудио#1: Русский, AC-3, 48.0 KHz, 6 ch, 384 Kbps Dub ( Netflix )
Релиз от: Автор рипа: slaventi-69
x264 [info]: frame I:1866 Avg QP:16.33 size: 80864
x264 [info]: frame P:90103 Avg QP:18.03 size: 21088
x264 [info]: frame B:290657 Avg QP:20.79 size: 7544
x264 [info]: consecutive B-frames: 1.9% 2.9% 10.1% 16.3% 54.0% 14.8%

Общее
Уникальный идентификатор : 241193853097504978267555418730980288306 (0xB5743F149CA323ADA244D2BAD639A732)
Полное имя : F:\60 FPS\Trollhunters_Rise.of.the.Titans.(2021).WEB-DLRip.720p.(60 Fps).mkv
Формат : Matroska
Версия формата : Version 4
Размер файла : 4,24 Гбайт
Продолжительность : 1 ч. 46 м.
Общий поток : 5712 Кбит/сек
Название фильма : Охотники на троллей: Восстание титанов / Trollhunters: Rise of the Titans (2021) WEB-DLRip 720p (60 Fps)
Дата кодирования : UTC 2021-09-05 09:25:43
Программа кодирования : mkvmerge v56.1.0 ('My Friend') 32-bit
Библиотека кодирования : libebml v1.4.2 + libmatroska v1.6.4

Видео
Идентификатор : 1
Формат : AVC
Формат/Информация : Advanced Video Codec
Профиль формата : High@L4.1
Настройки формата : CABAC / 9 Ref Frames
Параметр CABAC формата : Да
Параметр RefFrames формата : 9 кадров
Идентификатор кодека : V_MPEG4/ISO/AVC
Продолжительность : 1 ч. 46 м.
Битрейт : 5324 Кбит/сек
Ширина : 1280 пикселей
Высота : 720 пикселей
Соотношение сторон : 16:9
Режим частоты кадров : Постоянный
Частота кадров : 60,000 кадров/сек
Цветовое пространство : YUV
Субдискретизация насыщенности : 4:2:0
Битовая глубина : 8 бит
Тип развёртки : Прогрессивная
Бит/(Пиксели*Кадры) : 0.096
Размер потока : 3,95 Гбайт (93%)
Заголовок : slaventi-69 ( R.G. HD-Films | 60 fps )
Библиотека кодирования : x264 core 130 r2273 b3065e6
Настройки программы : cabac=1 / ref=10 / deblock=1:-1:-1 / analyse=0x3:0x133 / me=umh / subme=9 / psy=1 / psy_rd=1.00:0.00 / mixed_ref=1 / me_range=32 / chroma_me=1 / trellis=2 / 8x8dct=1 / cqm=0 / deadzone=21,11 / fast_pskip=0 / chroma_qp_offset=-2 / threads=10 / lookahead_threads=4 / sliced_threads=0 / nr=0 / decimate=1 / interlaced=0 / bluray_compat=0 / constrained_intra=0 / bframes=5 / b_pyramid=1 / b_adapt=2 / b_bias=0 / direct=2 / weightb=1 / open_gop=0 / weightp=2 / keyint=600 / keyint_min=23 / scenecut=40 / intra_refresh=0 / rc=crf / mbtree=0 / crf=18.0 / qcomp=0.60 / qpmin=0 / qpmax=69 / qpstep=4 / ip_ratio=1.40 / pb_ratio=1.30 / aq=1:1.00
Язык : English
Default : Да
Forced : Нет

Аудио
Идентификатор : 2
Формат : AC-3
Формат/Информация : Audio Coding 3
Коммерческое название : Dolby Digital
Идентификатор кодека : A_AC3
Продолжительность : 1 ч. 46 м.
Вид битрейта : Постоянный
Битрейт : 384 Кбит/сек
Каналы : 6 каналов
Channel layout : L R C LFE Ls Rs
Частота : 48,0 КГц
Частота кадров : 31,250 кадров/сек (1536 SPF)
Битовая глубина : 16 бит
Метод сжатия : С потерями
Размер потока : 292 Мбайт (7%)
Заголовок : Netflix
Язык : Russian
ServiceKind/String : Complete Main
Default : Да
Forced : Нет

Текст #1
Идентификатор : 3
Формат : UTF-8
Идентификатор кодека : S_TEXT/UTF8
Идентификатор кодека/Информация : UTF-8 Plain Text
Продолжительность : 1 ч. 44 м.
Битрейт : 75 бит/сек
ElementCount : 1256
Размер потока : 57,6 Кбайт (0%)
Заголовок : Русский
Язык : Russian
Default : Нет
Forced : Нет

Текст #2
Идентификатор : 4
Формат : UTF-8
Идентификатор кодека : S_TEXT/UTF8
Идентификатор кодека/Информация : UTF-8 Plain Text
Продолжительность : 9 м. 59 с.
Битрейт : 3 бит/сек
ElementCount : 14
Размер потока : 271 байт (0%)
Заголовок : English (Forced)
Язык : English
Default : Нет
Forced : Нет

Текст #3
Идентификатор : 5
Формат : UTF-8
Идентификатор кодека : S_TEXT/UTF8
Идентификатор кодека/Информация : UTF-8 Plain Text
Продолжительность : 1 ч. 38 м.
Битрейт : 60 бит/сек
ElementCount : 1616
Размер потока : 43,9 Кбайт (0%)
Заголовок : English (SDH)
Язык : English
Default : Нет
Forced : Нет

Просьба к переливающим на другие сайты, в оформлении указывайте пожалуйста авторство группы R.G. HD-Films piratbit.org



Скачать Охотники на троллей: Восстание титанов через торрент https://b.radikal.ru/b01/2107/55/0bd612841a2d.jpg Скачать, смотреть онлайн Охотники на троллей: Восстание титанов бесплантно в хорошем качестве Описание: Возможно, Аркадия выглядит как обычный город, но она находится на пересечении волшебных и мистических линий, поэтому оказывается ... 10 10 3
Торрент: Зарегистрирован [2021-09-05 10:17] · скачан: 66 раз
Статус: √ проверено
Размер: 4.24 GB
Как cкачать? Как скачать Охотники на троллей: Восстание титанов через торрент | UTorrent

28-11-2019 20:33  

Отключить всю рекламу на сайте

    Дорогой пользователь! Огромная просьба, поблагодарите релизера, оцените раздачу и оставьте свои комментарий, если Вы скачали Охотники на троллей: Восстание титанов через торрент бесплатно!
    Комментировать посты могут только пользователи прошедшие не сложную регистрацию
    Показать сообщения:    

    Охотники на троллей: Восстание титанов через торрент
    Скачать бесплатно Охотники на троллей: Восстание титанов
    Охотники на троллей: Восстание титанов скачать торрент
    Охотники на троллей: Восстание титанов смотреть онлайн
    Cкачать фильм Охотники на троллей: Восстание титанов бесплатно
    Охотники на троллей: Восстание титанов скачать торрент в хорошем качестве
    Охотники на троллей: Восстание титанов смотреть онлайн бесплатно в хорошем качестве


    Вы не можете начинать темы
    Вы не можете отвечать на сообщения
    Вы не можете редактировать свои сообщения
    Вы не можете удалять свои сообщения
    Вы не можете голосовать в опросах
    Вы не можете прикреплять файлы к сообщениям
    Вы можете скачивать файлы