>

5.6

iTunes

6.1

MVO

5.7

MVO

1

7.4

1 сезон

6.8

iTunes

7.2

1 сезон

13

6.7

1 сезон

8.3

RePack

30

Deluxe

pack

9.9

Лицензия

ВАЖНО

ИГРА 18+

pack

7.3

RePack

MK11

7.7

RePack

jed

7.8

RePack

fifa19

8.5

RePack

RDR2

RePack

NEED FOR SPEED™ PAYBACK

4 сезон

9 сезон

Бесстыжие 9 сезон

Все сериалы

все сериалы на PB.wtf

RePack

FAR CRY 5

Anonymous, добрый вечер, мы катастрофически не успеваем собрать деньги на оплату серверов, помогите нам пожалуйста 5,10,15р., для нас важна любая помощь . В качестве благодарности мы отключим Вам всю рекламу на сайте (укажите свой ник в строку Ваше имя)!

×
  
Magnet ссылка

Выжить любой ценой / Кровь и деньги / Allagash / Blood and Money (Джон Барр) [2020, Триллер, драма, HDRip-AVC] MVO [Окко] от MediaBit piratbit.org

Выжить любой ценой через торрент piratbit.org

Раздают: 6 [ 0 KB/s ]
Размер: 2.14 GB | Добавлен: 12 д. назад | Торрент скачан:94 раза
Смотреть онлайн Выжить любой ценой | Скачать    Ребята, помогите собрать деньги на оплату серверов!!!

07-09-2021 18:52 Выжить любой ценой Скачать торрент  


Выжить любой ценой / Кровь и деньги / Allagash / Blood and Money
Информация о фильме:
Название: Выжить любой ценой / Кровь и деньги
Оригинальное название: Allagash / Blood and Money
Год выхода: 2020
Жанр: Триллер, драма
Режиссер: Джон Барр
В ролях: Том Беренджер, Кристен Хагер, Пол Бен-Виктор, Джимми ЛеБланк, Марк Сивертсен, Брайан Даффи, Ди Кевин, Эйс Гибсон, Райан Хомчик, Каролина Порту, Эрика МакДермотт, Бейтс Уайлдер, Лиза Линч, Мелисса МакМикин, Гари Тангуе, Дэвид Дж. Кертис

Описание: Ветеран, промышляющий охотой на безлюдных просторах лесов штата Мэн, случайно находит в лесу труп женщины с сумкой набитой деньгами и становится целью бандитов, которым они принадлежат.



Страна: США
Студия: Screen Media, Allagash
Продолжительность: 01:29:26
Перевод: Профессиональный (многоголосый, закадровый) - Окко



Информация о файле:
Кодек: AVC
Формат: MKV
Качество: HDRip-AVC
Видео: MPEG-4 AVC, 1024x512, 23.976 fps, 2596 kbps
Аудио RU: AC3, 6 ch, 48 kHz, 384 kbps
Аудио EN: AC3, 6 ch, 48 kHz, 448 kbps
Субтитры: Русские, английские

x264 info: frame I:902 Avg QP:11.65 size:129920
x264 info: frame P:28714 Avg QP:15.30 size: 36989
x264 info: frame B:99044 Avg QP:19.78 size: 5671
General
Unique ID : 324183135482385425060010109984468193687 (0xF3E3669B6CA0BC9CEACAB98DB4F95197)
Complete name : D:\uTorrent\Рипы wolf1245\Allagash.Blood and Money.MVO.Okko.HDRip-AVC.[=wolf1245.MediaBit=].mkv
Format : Matroska
Format version : Version 4
File size : 2.14 GiB
Duration : 1 h 29 min
Overall bit rate : 3 429 kb/s
Movie name : Allagash.Blood and Money.MVO.Okko.HDRip-AVC.[=wolf1245.MediaBit=]
Encoded date : UTC 2021-09-07 18:40:25
Writing application : mkvmerge v61.0.0 ('So') 64-bit
Writing library : libebml v1.4.2 + libmatroska v1.6.4
Cover : Yes
Attachments : Cover 2.jpg / Cover.jpg

Video
ID : 1
Format : AVC
Format/Info : Advanced Video Codec
Format profile : High@L4.1
Format settings : CABAC / 14 Ref Frames
Format settings, CABAC : Yes
Format settings, Reference frames : 14 frames
Codec ID : V_MPEG4/ISO/AVC
Duration : 1 h 29 min
Bit rate : 2 596 kb/s
Width : 1 024 pixels
Height : 512 pixels
Display aspect ratio : 2.000
Frame rate mode : Constant
Frame rate : 23.976 (24000/1001) FPS
Color space : YUV
Chroma subsampling : 4:2:0
Bit depth : 8 bits
Scan type : Progressive
Bits/(Pixel*Frame) : 0.207
Stream size : 1.62 GiB (76%)
Title : -=[wolf1245.MediaBit]=-
Writing library : x264 core 161 r3020 d198931
Encoding settings : cabac=1 / ref=14 / deblock=1:-3:-2 / analyse=0x3:0x133 / me=umh / subme=11 / psy=1 / psy_rd=0.98:0.05 / mixed_ref=1 / me_range=48 / chroma_me=1 / trellis=2 / 8x8dct=1 / cqm=0 / deadzone=21,11 / fast_pskip=1 / chroma_qp_offset=-3 / threads=10 / lookahead_threads=2 / sliced_threads=0 / nr=0 / decimate=1 / interlaced=0 / bluray_compat=0 / constrained_intra=0 / bframes=12 / b_pyramid=2 / b_adapt=2 / b_bias=0 / direct=3 / weightb=1 / open_gop=0 / weightp=2 / keyint=240 / keyint_min=24 / scenecut=40 / intra_refresh=0 / rc_lookahead=60 / rc=2pass / mbtree=1 / bitrate=2596 / ratetol=1.0 / qcomp=0.60 / qpmin=0 / qpmax=69 / qpstep=4 / cplxblur=20.0 / qblur=0.5 / vbv_maxrate=50000 / vbv_bufsize=62500 / nal_hrd=none / filler=0 / ip_ratio=1.40 / aq=3:0.80
Language : Russian
Default : Yes
Forced : No

Audio #1
ID : 2
Format : AC-3
Format/Info : Audio Coding 3
Commercial name : Dolby Digital
Codec ID : A_AC3
Duration : 1 h 29 min
Bit rate mode : Constant
Bit rate : 384 kb/s
Channel(s) : 6 channels
Channel layout : L R C LFE Ls Rs
Sampling rate : 48.0 kHz
Frame rate : 31.250 FPS (1536 SPF)
Compression mode : Lossy
Stream size : 246 MiB (11%)
Title : MVO | [Окко]
Language : English
Service kind : Complete Main
Default : Yes
Forced : No

Audio #2
ID : 3
Format : AC-3
Format/Info : Audio Coding 3
Commercial name : Dolby Digital
Codec ID : A_AC3
Duration : 1 h 29 min
Bit rate mode : Constant
Bit rate : 448 kb/s
Channel(s) : 6 channels
Channel layout : L R C LFE Ls Rs
Sampling rate : 48.0 kHz
Frame rate : 31.250 FPS (1536 SPF)
Compression mode : Lossy
Stream size : 287 MiB (13%)
Title : Original
Language : English
Service kind : Complete Main
Default : No
Forced : No

Text #1
ID : 4
Format : UTF-8
Codec ID : S_TEXT/UTF8
Codec ID/Info : UTF-8 Plain Text
Duration : 1 h 26 min
Bit rate : 0 b/s
Count of elements : 6
Stream size : 619 Bytes (0%)
Title : Forced
Language : Russian
Default : Yes
Forced : No

Text #2
ID : 5
Format : UTF-8
Codec ID : S_TEXT/UTF8
Codec ID/Info : UTF-8 Plain Text
Duration : 1 h 21 min
Bit rate : 34 b/s
Count of elements : 545
Stream size : 20.4 KiB (0%)
Title : Full
Language : Russian
Default : No
Forced : No

Text #3
ID : 6
Format : UTF-8
Codec ID : S_TEXT/UTF8
Codec ID/Info : UTF-8 Plain Text
Duration : 1 h 25 min
Bit rate : 23 b/s
Count of elements : 690
Stream size : 15.0 KiB (0%)
Language : English
Default : No
Forced : No

Menu
00:00:00.000 : :Chapter 01
00:09:23.604 : :Chapter 02
00:15:47.613 : :Chapter 03
00:24:03.066 : :Chapter 04
00:31:47.739 : :Chapter 05
00:43:25.477 : :Chapter 06
00:51:20.619 : :Chapter 07
01:00:42.889 : :Chapter 08
01:08:41.492 : :Chapter 09
01:11:40.963 : :Chapter 10
01:17:56.963 : :Chapter 11
01:26:29.726 : :Chapter 12
Релиз от: &

Автор релиза:
piratbit.org



Скачать Выжить любой ценой через торрент https://i115.fastpic.org/big/2021/0907/eb/831e283f4263885eb08c75ba69d9ddeb.jpg Скачать, смотреть онлайн Выжить любой ценой бесплантно в хорошем качестве Описание: Ветеран, промышляющий охотой на безлюдных просторах лесов штата Мэн, случайно находит в лесу труп женщины с сумкой набитой ... 10 10 6
Торрент: Зарегистрирован [2021-09-07 18:52] · скачан: 94 раз
Статус: √ проверено
Размер: 2.14 GB
Как cкачать? Как скачать Выжить любой ценой через торрент | UTorrent

28-11-2019 20:33  

Отключить всю рекламу на сайте

07-09-2021 20:26 Выжить любой ценой Скачать торрент  

Говорят фильм скучный ,постарел Беренджер. А жаль. лучше бы они уже не снимались во всяком дерьме а оставили о себе хорошую памятьpiratbit.org



    Дорогой пользователь! Огромная просьба, поблагодарите релизера, оцените раздачу и оставьте свои комментарий, если Вы скачали Выжить любой ценой через торрент бесплатно!
    Комментировать посты могут только пользователи прошедшие не сложную регистрацию
    Показать сообщения:    

    Выжить любой ценой через торрент
    Скачать бесплатно Выжить любой ценой
    Выжить любой ценой скачать торрент
    Выжить любой ценой смотреть онлайн
    Cкачать фильм Выжить любой ценой бесплатно
    Выжить любой ценой скачать торрент в хорошем качестве
    Выжить любой ценой смотреть онлайн бесплатно в хорошем качестве


    Вы не можете начинать темы
    Вы не можете отвечать на сообщения
    Вы не можете редактировать свои сообщения
    Вы не можете удалять свои сообщения
    Вы не можете голосовать в опросах
    Вы не можете прикреплять файлы к сообщениям
    Вы можете скачивать файлы