Anonymous, добрый день, присоединяйтесь к нам в Telegram!, здесь всегда актуальный адрес сайта, оперативная поддержка и многое другое!

>

5.6

iTunes

7.4

iTunes

5.7

MVO

1

7.7

1 сезон

6.8

iTunes

7.3

1 сезон

13

6.7

1 сезон

8.3

RePack

30

ULTIMATE

pack

9.9

Лицензия

ВАЖНО

ИГРА 18+

pack

7.3

RePack

MK11

7.7

RePack

jed

7.8

RePack

fifa19

8.5

RePack

RDR2

RePack

NEED FOR SPEED™ PAYBACK

4 сезон

9 сезон

Бесстыжие 9 сезон

Все сериалы

все сериалы на PB.wtf

RePack

FAR CRY 5

Anonymous, добрый день, мы катастрофически не успеваем собрать деньги на оплату серверов, помогите нам пожалуйста 5,10,15р., для нас важна любая помощь . В качестве благодарности мы отключим Вам всю рекламу на сайте (укажите свой ник в строку Ваше имя)!

×
  
Magnet ссылка

Контейнер / Сезон: 1 / Серии: 1-7 из 8 (Максим Свешников) [2021, Драма, триллер, WEBRip, (Версия 18+)] piratbit.org

Контейнер через торрент piratbit.org

Раздают: 4 [ 8 KB/s ] Качают: 2 [ 0 KB/s ]
Размер: 4.54 GB | Добавлен: 3 д. назад | Торрент скачан:9 раз
Смотреть онлайн Контейнер | Скачать    Ребята, помогите собрать деньги на оплату серверов!!!

08-09-2021 21:41 Контейнер Скачать торрент  

Контейнер
Год выпуска: 2021
Страна: Россия
Студия: START Studio
Жанр: Драма, триллер
Продолжительность: ~ 00:54:00 серия
Перевод: Не требуется
Субтитры: отсутствуют
Версия 18+.

Режиссер: Максим Свешников



В ролях: Оксана Акиньшина, Филипп Янковский, Мария Фомина, Юлия Ауг, Артём Быстров, Маша Лобанова, Нино Кантария, Ростислав Бершауэр, Екатерина Строгова, Дмитрий Чеботарёв, Сергей Годин, Елизавета Шакира, Сергей Подольный, Михаил Засидкевич, Иван Засидкевич

Описание: Вопреки общей практике, суррогатная мать Саша переезжает в дом заказчиков на время беременности. Девушка оказывается в другом для себя мире — в доме богатого чиновника Вадима и его жены Марины. Для них Саша — «контейнер», новая игрушка. То, что вначале представлялось как безопасное решение и забота о будущем ребенке, оборачивается испытаниями для каждого из обитателей дома. За роскошным фасадом элитного поселка скрываются неприглядные тайны. Но и у Саши есть секрет…

Качество: WEBRip
Формат: AVI

Видео: XviD, 720x304, ~ 1500 Кбит/с, 0.245 bit/pixel, 25 Кадр/с
Аудио: 48.0 kHz, AC3 Dolby Digital, 2/0 (L,R) ch, ~ 192 kbps
скриншот  скриншот  скриншот  скриншот  скриншот  

Общее
Полное имя : D:\Konteyner.2021.WEB-DLRip.25Kuzmich\Konteyner.e01.WEB-DLRip.25Kuzmich.avi
Формат : AVI
Формат/Информация : Audio Video Interleave
Размер файла : 601 Мбайт
Продолжительность : 54 м. 28 с.
Общий поток : 1 542 Кбит/сек
Программа кодирования : VirtualDubMod 1.5.10.3 | www.virtualdub-fr.org || (build 2550/release)
Библиотека кодирования : VirtualDubMod build 2550/release

Видео
Идентификатор : 0
Формат : MPEG-4 Visual
Профиль формата : Advanced Simple@L5
Настройки формата : BVOP1
Параметр BVOP формата : 1
Параметр QPel формата : Нет
Параметр GMC формата : Без точки перехода
Параметр матрицы формата : Default (MPEG)
Идентификатор кодека : XVID
Идентификатор кодека/Подсказка : XviD
Продолжительность : 54 м. 28 с.
Битрейт : 1 340 Кбит/сек
Ширина : 720 пикселей
Высота : 304 пикселя
Соотношение сторон : 2,35:1
Частота кадров : 25,000 кадров/сек
Цветовое пространство : YUV
Субдискретизация насыщенности : 4:2:0
Битовая глубина : 8 бит
Тип развёртки : Прогрессивная
Метод сжатия : С потерями
Бит/(Пиксели*Кадры) : 0.245
Размер потока : 522 Мбайт (87%)
Библиотека кодирования : XviD 73

Аудио
Идентификатор : 1
Формат : AC-3
Формат/Информация : Audio Coding 3
Коммерческое название : Dolby Digital
Идентификатор кодека : 2000
Продолжительность : 54 м. 28 с.
Вид битрейта : Постоянный
Битрейт : 192 Кбит/сек
Каналы : 2 канала
Channel layout : L R
Частота : 48,0 КГц
Частота кадров : 31,250 кадров/сек (1536 SPF)
Метод сжатия : С потерями
Размер потока : 74,8 Мбайт (12%)
Выравнивание : Разделение по промежуткам
Продолжительность промежутка : 40 мс. (1,00 видеокадр)
Время предзагрузки промежутка : 500 мс.
Service kind : Complete Main

Внимание! Раздача ведётся путём добавления новых серий; при каждом добавлении создаётся новый торрент.
Чтобы начать докачку новой серии, пользователям необходимо сделать следующее:
1. Остановить скачивание;
2. Удалить старый торрент у себя из клиента (старые серии удалять не надо);
3. Скачать новый торрент и запустить его у себя в клиенте вместо старого, при этом указать клиенту путь в старую папку куда и должно происходить скачивание новых серий. Ваш клиент при этом должен произвести хеширование (проверку) старой папки и будет докачивать только те серии, которых у вас ещё нет. Старые серии при этом не удаляются, а продолжают раздаваться! Eсли вы уже удалили старые серии, то предотвратить повторную закачку старых серий можно, отжав галочку в соответствующих местах при запуске нового торрента.

piratbit.org



Скачать Контейнер через торрент https://c.radikal.ru/c06/2109/e9/79c54001a7f5.jpg Скачать, смотреть онлайн Контейнер бесплантно в хорошем качестве Описание: Вопреки общей практике, суррогатная мать Саша переезжает в дом заказчиков на время беременности. Девушка оказывается в другом для ... 10 10 6
Торрент: Зарегистрирован [2021-10-13 21:58] · скачан: 9 раз
Статус: √ проверено
Размер: 4.54 GB
Как cкачать? Как скачать Контейнер через торрент | UTorrent

% Раздел Тема Автор DL S | L
Наши сериалы [ 4.25 GB ] Контейнер / Сезон: 1 / Серии: 1-7 из 8 [2021 WEBRip-AVC ] bober100 Скачать
3 | 6
Наши сериалы [ 7.52 GB ] Контейнер / Сезон: 1 / Серии: 1-7 из 8 [2021 WEBRip 720p ] bober100 Скачать
6 | 7
Наши сериалы [ 15.57 GB ] Контейнер / Сезон: 1 / Серии: 1-7 из 8 [2021 WEBRip 1080p ] bober100 Скачать
6 | 6

28-11-2019 20:33  

Отключить всю рекламу на сайте

    Дорогой пользователь! Огромная просьба, поблагодарите релизера, оцените раздачу и оставьте свои комментарий, если Вы скачали Контейнер через торрент бесплатно!
    Комментировать посты могут только пользователи прошедшие не сложную регистрацию
    Показать сообщения:    

    Контейнер через торрент
    Скачать бесплатно Контейнер
    Контейнер скачать торрент
    Контейнер смотреть онлайн
    Cкачать фильм Контейнер бесплатно
    Контейнер скачать торрент в хорошем качестве
    Контейнер смотреть онлайн бесплатно в хорошем качестве


    Вы не можете начинать темы
    Вы не можете отвечать на сообщения
    Вы не можете редактировать свои сообщения
    Вы не можете удалять свои сообщения
    Вы не можете голосовать в опросах
    Вы не можете прикреплять файлы к сообщениям
    Вы можете скачивать файлы