>

5.6

iTunes

6.1

MVO

5.7

MVO

1

7.4

1 сезон

6.8

iTunes

7.2

1 сезон

13

6.7

1 сезон

8.3

RePack

30

Deluxe

pack

9.9

Лицензия

ВАЖНО

ИГРА 18+

pack

7.3

RePack

MK11

7.7

RePack

jed

7.8

RePack

fifa19

8.5

RePack

RDR2

RePack

NEED FOR SPEED™ PAYBACK

4 сезон

9 сезон

Бесстыжие 9 сезон

Все сериалы

все сериалы на PB.wtf

RePack

FAR CRY 5

Anonymous, добрый день, мы катастрофически не успеваем собрать деньги на оплату серверов, помогите нам пожалуйста 5,10,15р., для нас важна любая помощь . В качестве благодарности мы отключим Вам всю рекламу на сайте (укажите свой ник в строку Ваше имя)!

×
  
Magnet ссылка

За гранью жизни / Out of Death (Майк Бёрнс) [2021, Триллер, криминал, BDRip 720p] DUB [iTunes] piratbit.org

За гранью жизни через торрент piratbit.org

Раздают: 5 [ 260 KB/s ]
Размер: 4.7 GB | Добавлен: 5 д. назад | Торрент скачан:42 раза
Смотреть онлайн За гранью жизни | Скачать    Ребята, помогите собрать деньги на оплату серверов!!!

09-09-2021 23:29 За гранью жизни Скачать торрент  

За гранью жизни | Out of Death
Год выпуска: 2021
Страна: США
Выпущено: Emmett/Furla/Oasis Films (EFO Films), SSS Entertainment, BondIt Media Capital
Жанр: Триллер, криминал
Продолжительность: 01:35:43
Перевод: Дублированный | iTunes
Субтитры: Английские

Режиссер: Майк Бёрнс

rating

В ролях: Джейми Кинг, Брюс Уиллис, Лорин Кент, Келли Грейсон, Меган Леонард, Майкл Сироу, Тайлер Джон Олсон, Оливер Тревена, Майк Бёрнс, Адам Уэль Поттер

Описание: Фотограф Шеннон Мэтерс невольно становится свидетелем сделки с наркотиками, во время которой полицейские убивают неизвестного. Она успевает сделать несколько снимков, но ее засекают. Шеннон удается бежать, но преступные копы идут за ней по пятам. Егерь Джек Харрис, офицер полиции в отставке, помогает ей укрыться от преследования, но можно ли доверять ему?

Качество: BDRip 720p
Формат: MKV

Видео: MPEG-4 AVC, 6000 Kb/s, 1280x536, 23.976 fps
Аудио #1 Russian : 48 kHz, AC3 Dolby Digital, 3/2 (L, C, R, l, r) + LFE ch, ~384 Kbps | DUB | iTunes
Аудио #2 English : 48 kHz, AC3 Dolby Digital, 3/2 (L, C, R, l, r) + LFE ch, ~640 Kbps | Original
скриншот  скриншот  скриншот  скриншот  

Complete name : Za.granyu.zhizni.2021.BDRip.720p.ELEKTRI4KA.UNIONGANG.mkv
Format : Matroska
Format version : Version 4
File size : 4.70 GiB
Duration : 1 h 35 min
Overall bit rate : 7 026 kb/s
Movie name : Za.granyu.zhizni.2021.BDRip.720p.ELEKTRI4KA.UNIONGANG.
Encoded date : UTC 2021-09-18 17:56:43
Writing application : mkvmerge v8.3.0 ('Over the Horizon') 32bit
Writing library : libebml v1.3.1 + libmatroska v1.4.2

Video
ID : 1
Format : AVC
Format/Info : Advanced Video Codec
Format profile : High@L4.1
Format settings : CABAC / 12 Ref Frames
Format settings, CABAC : Yes
Format settings, Reference frames : 12 frames
Codec ID : V_MPEG4/ISO/AVC
Duration : 1 h 35 min
Bit rate : 6 000 kb/s
Width : 1 280 pixels
Height : 536 pixels
Display aspect ratio : 2.40:1
Frame rate mode : Constant
Frame rate : 23.976 (24000/1001) FPS
Color space : YUV
Chroma subsampling : 4:2:0
Bit depth : 8 bits
Scan type : Progressive
Bits/(Pixel*Frame) : 0.365
Stream size : 4.01 GiB (85%)
Writing library : x264 core 157 r2958 57baac4
Encoding settings : cabac=1 / ref=12 / deblock=1:-3:-3 / analyse=0x3:0x133 / me=umh / subme=10 / psy=1 / psy_rd=1.00:0.00 / mixed_ref=1 / me_range=32 / chroma_me=1 / trellis=2 / 8x8dct=1 / cqm=0 / deadzone=21, 11 / fast_pskip=0 / chroma_qp_offset=-2 / threads=49 / lookahead_threads=4 / sliced_threads=0 / nr=0 / decimate=0 / interlaced=0 / bluray_compat=0 / constrained_intra=0 / bframes=8 / b_pyramid=2 / b_adapt=2 / b_bias=0 / direct=3 / weightb=0 / open_gop=0 / weightp=2 / keyint=240 / keyint_min=24 / scenecut=40 / intra_refresh=0 / rc=2pass / mbtree=0 / bitrate=6000 / ratetol=1.0 / qcomp=0.60 / qpmin=0 / qpmax=69 / qpstep=4 / cplxblur=20.0 / qblur=0.5 / ip_ratio=1.40 / pb_ratio=1.30 / aq=1:1.00
Language : English
Default : Yes
Forced : No
Color range : Limited
Color primaries : BT.709
Transfer characteristics : BT.709
Matrix coefficients : BT.709

Audio #1
ID : 2
Format : AC-3
Format/Info : Audio Coding 3
Commercial name : Dolby Digital
Codec ID : A_AC3
Duration : 1 h 35 min
Bit rate mode : Constant
Bit rate : 384 kb/s
Channel(s) : 6 channels
Channel layout : L R C LFE Ls Rs
Sampling rate : 48.0 kHz
Frame rate : 31.250 FPS (1536 SPF)
Compression mode : Lossy
Stream size : 263 MiB (5%)
Title : DUB
Language : Russian
Service kind : Complete Main
Default : Yes
Forced : Yes

Audio #2
ID : 3
Format : AC-3
Format/Info : Audio Coding 3
Commercial name : Dolby Digital
Codec ID : A_AC3
Duration : 1 h 35 min
Bit rate mode : Constant
Bit rate : 640 kb/s
Channel(s) : 6 channels
Channel layout : L R C LFE Ls Rs
Sampling rate : 48.0 kHz
Frame rate : 31.250 FPS (1536 SPF)
Compression mode : Lossy
Stream size : 438 MiB (9%)
Title : Original
Language : English
Service kind : Complete Main
Default : No
Forced : No

Text #1
ID : 4
Format : UTF-8
Codec ID : S_TEXT/UTF8
Codec ID/Info : UTF-8 Plain Text
Duration : 1 h 34 min
Bit rate : 42 b/s
Count of elements : 1118
Stream size : 29.4 KiB (0%)
Language : English
Default : No
Forced : No

Text #2
ID : 5
Format : UTF-8
Codec ID : S_TEXT/UTF8
Codec ID/Info : UTF-8 Plain Text
Duration : 1 h 35 min
Bit rate : 52 b/s
Count of elements : 1367
Stream size : 37.0 KiB (0%)
Title : SDH
Language : English
Default : No
Forced : No

Menu
00:00:00.000 : en:Chapter 01
00:07:45.799 : en:Chapter 02
00:16:03.171 : en:Chapter 03
00:24:28.842 : en:Chapter 04
00:32:18.061 : en:Chapter 05
00:40:36.142 : en:Chapter 06
00:50:39.161 : en:Chapter 07
00:59:27.522 : en:Chapter 08
01:08:57.717 : en:Chapter 09
01:17:40.990 : en:Chapter 10
01:24:30.482 : en:Chapter 11
01:32:58.490 : en:Chapter 12

piratbit.org



Скачать За гранью жизни через торрент https://i3.imageban.ru/out/2021/09/18/e7c7d4620e7502c4cd5551b2f0279ccc.png Скачать, смотреть онлайн За гранью жизни бесплантно в хорошем качестве Описание: Фотограф Шеннон Мэтерс невольно становится свидетелем сделки с наркотиками, во время которой полицейские убивают неизвестного. ... 10 10 6
Торрент: Зарегистрирован [2021-09-19 09:11] · скачан: 42 раз
Статус: √ проверено
Размер: 4.7 GB
Как cкачать? Как скачать За гранью жизни через торрент | UTorrent

% Раздел Тема Автор DL S | L
Фильмы 2021 [DVDrip, WEB-DLRip, HDrip] (DUB, MVO) [ 2.05 GB ] За гранью жизни / Out of Death [2021 HDRip-AVC] от MediaBit Lithuania Скачать
16 | 0
Фильмы 2021 [DVDrip, WEB-DLRip, HDrip] (DUB, MVO) [ 1.93 GB ] За гранью жизни / Out of Death [2021 BDRip-AVC] bober100 Скачать
5 | 0
Фильмы (Blu-ray, BD-Remux, HDDVD) [ 20.04 GB ] За гранью жизни / Out of Death [2021 BD Remux 1080p] bober100 Скачать
4 | 0
Фильмы 2021 [DVDrip, WEB-DLRip, HDrip] (DUB, MVO) [ 1.46 GB ] За гранью жизни / Out of Death [2021 BDRip] bober100 Скачать
2 | 0
Фильмы [HD 720p, 1080p] (Хороший звук DUB, MVO) [ 11.33 GB ] За гранью жизни / Out of Death [2021 BDRip 1080p] bober100 Скачать
8 | 0

28-11-2019 20:33  

Отключить всю рекламу на сайте

    Дорогой пользователь! Огромная просьба, поблагодарите релизера, оцените раздачу и оставьте свои комментарий, если Вы скачали За гранью жизни через торрент бесплатно!
    Комментировать посты могут только пользователи прошедшие не сложную регистрацию
    Показать сообщения:    

    За гранью жизни через торрент
    Скачать бесплатно За гранью жизни
    За гранью жизни скачать торрент
    За гранью жизни смотреть онлайн
    Cкачать фильм За гранью жизни бесплатно
    За гранью жизни скачать торрент в хорошем качестве
    За гранью жизни смотреть онлайн бесплатно в хорошем качестве


    Вы не можете начинать темы
    Вы не можете отвечать на сообщения
    Вы не можете редактировать свои сообщения
    Вы не можете удалять свои сообщения
    Вы не можете голосовать в опросах
    Вы не можете прикреплять файлы к сообщениям
    Вы можете скачивать файлы