>

5.6

iTunes

6.1

MVO

5.7

MVO

1

7.4

1 сезон

6.8

iTunes

7.2

1 сезон

13

6.7

1 сезон

8.3

RePack

30

Deluxe

pack

9.9

Лицензия

ВАЖНО

ИГРА 18+

pack

7.3

RePack

MK11

7.7

RePack

jed

7.8

RePack

fifa19

8.5

RePack

RDR2

RePack

NEED FOR SPEED™ PAYBACK

4 сезон

9 сезон

Бесстыжие 9 сезон

Все сериалы

все сериалы на PB.wtf

RePack

FAR CRY 5

Anonymous, добрый день, мы катастрофически не успеваем собрать деньги на оплату серверов, помогите нам пожалуйста 5,10,15р., для нас важна любая помощь . В качестве благодарности мы отключим Вам всю рекламу на сайте (укажите свой ник в строку Ваше имя)!

×
  
Magnet ссылка

Рик и Морти / Rick And Morty / Сезон: 1-5 / Серии: 1-51 из 51 (Пит Мишелс, Брайан Ньютон, Джон Райс) [2013-2021, Мультфильм, комедия, фантастика, BDRip, WEB-DLRip] VO [Сыендук] piratbit.org

Рик и Морти через торрент piratbit.org

Качают: 2 [ 0 KB/s ]
Размер: 17.97 GB | Добавлен: 14 д. назад | Торрент скачан:22 раза
Смотреть онлайн Рик и Морти | Скачать    Ребята, помогите собрать деньги на оплату серверов!!!

10-09-2021 06:33 Рик и Морти Скачать торрент  

✘ Рик и Морти | Rick and Morty ✘
«Science makes sense, family doesn't»

Страна: США
Студия: Harmonius Claptrap, Starburns Industries, Williams Street
Жанр: Мультфильм, комедия, фантастика
Продолжительность серии: 00:22:30
Год выпуска: 2013-2021
Перевод: Профессиональный (одноголосый закадровый) | Сыендук
Субтитры: отсутствуют

Режиссёр: Пит Мишелс, Брайан Ньютон, Джон Райс

В ролях: Джастин Ройланд, Спенсер Грэммер, Сара Чалк, Крис Парнелл, Эрик Бауза, Дэн Хэрмон, Фил Хендри, Брэндон Джонсон, Райан Ридли, Кари Уолгрен

Описание: В центре сюжета — школьник по имени Морти и его дедушка Рик. Морти — самый обычный мальчик, который ничем не отличается от своих сверстников. А вот его дедуля занимается необычными научными исследованиями и зачастую полностью неадекватен. Он может в любое время дня и ночи схватить внука и отправиться вместе с ним в межпространственные приключения с помощью построенной из разного хлама летающей тарелки, которая способна перемещаться сквозь временной тоннель. Каждый раз эта парочка оказывается в самых неожиданных местах и самых нелепых ситуациях.

rating

Качество: BDRip, WEB-DLRip
Формат: AVI

Видео: 720x400, 23.976 fps, XviD ~2000 kbps
Аудио Rus: 48 kHz, MPEG Layer 3, 2 ch, ~128.00 kbps
Аудио Eng: 48 kHz, MPEG Layer 3, 2 ch, ~128.00 kbps
Общее
Полное имя : D:\Rick and Morty\Season 1\Rick.and.Morty.s01e01.avi
Формат : AVI
Формат/Информация : Audio Video Interleave
Размер файла : 358 Мбайт
Продолжительность : 22 м. 1 с.
Общий поток : 2 270 Кбит/сек
Название фильма : Rick.and.Morty.s01e01.Skreech
Программа кодирования : VirtualDubMod 1.5.10.2 (build 2540/release)
Библиотека кодирования : VirtualDubMod build 2540/release

Видео
Идентификатор : 0
Формат : MPEG-4 Visual
Профиль формата : Advanced Simple@L5
Настройки формата : BVOP1 / Custom Matrix
Параметр BVOP формата : 1
Параметр QPel формата : Нет
Параметр GMC формата : Без точки перехода
Параметр матрицы формата : Выборочная
Идентификатор кодека : XVID
Идентификатор кодека/Подсказка : XviD
Продолжительность : 22 м. 1 с.
Битрейт : 1 914 Кбит/сек
Ширина : 720 пикселей
Высота : 400 пикселей
Соотношение сторон : 16:9
Частота кадров : 23,976 (24000/1001) кадра/сек
Цветовое пространство : YUV
Субдискретизация насыщенности : 4:2:0
Битовая глубина : 8 бит
Тип развёртки : Прогрессивная
Метод сжатия : С потерями
Бит/(Пиксели*Кадры) : 0.277
Размер потока : 301 Мбайт (84%)
Библиотека кодирования : XviD 73

Аудио #1
Идентификатор : 1
Формат : MPEG Audio
Версия формата : Version 1
Профиль формата : Layer 3
Настройки формата : Joint stereo
Идентификатор кодека : 55
Идентификатор кодека/Подсказка : MP3
Продолжительность : 22 м. 1 с.
Вид битрейта : Постоянный
Битрейт : 128 Кбит/сек
Каналы : 2 канала
Частота : 48,0 КГц
Метод сжатия : С потерями
Размер потока : 20,2 Мбайт (6%)
Выравнивание : Разделение по промежуткам

Аудио #2
Идентификатор : 2
Формат : MPEG Audio
Версия формата : Version 1
Профиль формата : Layer 3
Настройки формата : Joint stereo
Идентификатор кодека : 55
Идентификатор кодека/Подсказка : MP3
Продолжительность : 22 м. 1 с.
Вид битрейта : Постоянный
Битрейт : 128 Кбит/сек
Каналы : 2 канала
Частота : 48,0 КГц
Метод сжатия : С потерями
Размер потока : 20,2 Мбайт (6%)
Выравнивание : Разделение по промежуткам
скриншот  скриншот  скриншот  скриншот  скриншот  
Внимание! Раздача ведётся путём добавления новых серий; при каждом добавлении создаётся новый торрент. Чтобы начать докачку новой серии, пользователям необходимо сделать следующее:
(1) остановить скачивание,
(2) удалить старый торрент у себя из клиента (старые серии удалять не надо),
(3) скачать новый торрент и запустить его у себя в клиенте вместо старого, при этом указать клиенту путь в старую папку куда и должно происходить скачивание новых серий.

Ваш клиент при этом должен произвести хеширование (проверку) старой папки (если не производит сам - помогите ему сделать это), и будет докачивать только те серии которых у вас ещё нет. Старые серии при этом не удаляются, а продолжают раздаваться!

Eсли вы уже удалили старые серии, то предотвратить повторную закачку старых серий можно, отжав галочку в соответствующих местах при запуске нового торрента. По возможности, желательно не удалять старые серии как можно дольше чтобы релизёр не столько продолжал раздавать старые серии, а смог сконцентрироваться на новых.
piratbit.org



Скачать Рик и Морти через торрент https://i4.imageban.ru/out/2021/04/12/29340b62f60a4d74503878b553a22de4.gif Скачать, смотреть онлайн Рик и Морти бесплантно в хорошем качестве Описание: В центре сюжета — школьник по имени Морти и его дедушка Рик. Морти — самый обычный мальчик, который ничем не отличается от своих ... 10 10 2
Торрент: Зарегистрирован [2021-09-10 06:33] · скачан: 22 раз
Статус: √ проверено
Размер: 17.97 GB
Как cкачать? Как скачать Рик и Морти через торрент | UTorrent

28-11-2019 20:33  

Отключить всю рекламу на сайте

    Дорогой пользователь! Огромная просьба, поблагодарите релизера, оцените раздачу и оставьте свои комментарий, если Вы скачали Рик и Морти через торрент бесплатно!
    Комментировать посты могут только пользователи прошедшие не сложную регистрацию
    Показать сообщения:    

    Рик и Морти через торрент
    Скачать бесплатно Рик и Морти
    Рик и Морти скачать торрент
    Рик и Морти смотреть онлайн
    Cкачать фильм Рик и Морти бесплатно
    Рик и Морти скачать торрент в хорошем качестве
    Рик и Морти смотреть онлайн бесплатно в хорошем качестве


    Вы не можете начинать темы
    Вы не можете отвечать на сообщения
    Вы не можете редактировать свои сообщения
    Вы не можете удалять свои сообщения
    Вы не можете голосовать в опросах
    Вы не можете прикреплять файлы к сообщениям
    Вы можете скачивать файлы