>

5.6

iTunes

6.1

MVO

5.7

MVO

1

7.4

1 сезон

6.8

iTunes

7.2

1 сезон

13

6.7

1 сезон

8.3

RePack

30

Deluxe

pack

9.9

Лицензия

ВАЖНО

ИГРА 18+

pack

7.3

RePack

MK11

7.7

RePack

jed

7.8

RePack

fifa19

8.5

RePack

RDR2

RePack

NEED FOR SPEED™ PAYBACK

4 сезон

9 сезон

Бесстыжие 9 сезон

Все сериалы

все сериалы на PB.wtf

RePack

FAR CRY 5

Anonymous, добрый вечер, мы катастрофически не успеваем собрать деньги на оплату серверов, помогите нам пожалуйста 5,10,15р., для нас важна любая помощь . В качестве благодарности мы отключим Вам всю рекламу на сайте (укажите свой ник в строку Ваше имя)!

×
  
Magnet ссылка

Хищники / I predatori (Пьетро Кастеллитто) [2020 г., драма, комедия, WEB-DLRip, Профессиональный многоголосый закадровый "iTunes"] piratbit.org

Хищники через торрент piratbit.org

Раздают: 10 [ 0 KB/s ]
Размер: 710 MB | Добавлен: 9 д. назад | Торрент скачан:38 раз
Смотреть онлайн Хищники | Скачать    Ребята, помогите собрать деньги на оплату серверов!!!

10-09-2021 18:19 Хищники Скачать торрент  

Хищники / I predatori
Год выпуска: 2020
Страна: Италия / Direzione Generale per il Cinema, Фанданго, Rai Cinema, Regione Lazio
Жанр: драма, комедия
Продолжительность: 01:49:03
Перевод: Профессиональный многоголосый закадровый (iTunes)

Режиссер: Пьетро Кастеллитто

rating

В ролях: Массимо Пополицио, Пьетро Кастеллитто, Анита Каприоли, Нандо Паоне, Мануэла Мандраккиа, Джорджо Монтанини, Дарио Кассини, Марция Убальди, Джулия Петрини, Лилиана Фьорелли

Описание: Судьбы двух римских семей пересекаются из-за нелепой случайности. Семья Павоне — утонченные интеллектуалы и буржуа, живущие в центре Рима. Семья Висмара из небогатого пригорода — дерзкие пролетарии и… неофашисты. Два противоположных мира сталкиваются, и последствия этого будут неожиданными для всех.

Качество: WEB-DLRip
Формат: AVI
Видео кодек: DivX
Аудио кодек: MP3
Видео: 640x272 (2.35:1), 24.000 fps, DivX Codec 4.x ~773 kbps avg, 0.19 bit/pixel
Аудио: 48 kHz, MPEG Layer 3, 2 ch, ~128.00 kbps avg

Общее
Полное имя : G:\ФИЛЬМЫ\Хищники.2020.WEB-DLRip.avi
Формат : AVI
Формат/Информация : Audio Video Interleave
Размер файла : 710 Мбайт
Продолжительность : 1 ч. 49 м.
Общий поток : 910 Кбит/сек
Программа кодирования : VirtualDubMod 1.5.10.3 | www.virtualdub-fr.org || (build 2550/release)
Библиотека кодирования : VirtualDubMod build 2550/release

Видео
Идентификатор : 0
Формат : MPEG-4 Visual
Профиль формата : Advanced Simple@L5
Настройки формата : BVOP2
Параметр BVOP формата : 2
Параметр QPel формата : Нет
Параметр GMC формата : Без точки перехода
Параметр матрицы формата : Default (MPEG)
Идентификатор кодека : DIVX
Идентификатор кодека/Информация : Project Mayo
Идентификатор кодека/Подсказка : DivX 4
Продолжительность : 1 ч. 49 м.
Битрейт : 773 Кбит/сек
Ширина : 640 пикселей
Высота : 272 пикселя
Соотношение сторон : 2,35:1
Частота кадров : 24,000 кадра/сек
Цветовое пространство : YUV
Субдискретизация насыщенности : 4:2:0
Битовая глубина : 8 бит
Тип развёртки : Прогрессивная
Метод сжатия : С потерями
Бит/(Пиксели*Кадры) : 0.185
Размер потока : 603 Мбайт (85%)
Библиотека кодирования : XviD 1.2.1 (UTC 2008-12-04)

Аудио
Идентификатор : 1
Формат : MPEG Audio
Версия формата : Version 1
Профиль формата : Layer 3
Настройки формата : Joint stereo
Идентификатор кодека : 55
Идентификатор кодека/Подсказка : MP3
Продолжительность : 1 ч. 49 м.
Вид битрейта : Постоянный
Битрейт : 128 Кбит/сек
Каналы : 2 канала
Частота : 48,0 КГц
Частота кадров : 41,667 кадра/сек (1152 SPF)
Метод сжатия : С потерями
Размер потока : 99,8 Мбайт (14%)
Выравнивание : Соединение по промежуткам
Продолжительность промежутка : 42 мс. (1,00 видеокадр)
Время предзагрузки промежутка : 504 мс.
Библиотека кодирования : LAME3.99r
Настройки программы : -m j -V 4 -q 2 -lowpass 17 -b 128

Report created by : MediaInfoLib - v21.03
Report created on : UTC 2021-09-10 17:59:41

piratbit.org



Скачать Хищники через торрент https://pic1.kartinco.top/new/img/2021-09/10/cawb3vdo3248hyl1c69b9sq6l.jpg Скачать, смотреть онлайн Хищники бесплантно в хорошем качестве Описание: Судьбы двух римских семей пересекаются из-за нелепой случайности. Семья Павоне — утонченные интеллектуалы и буржуа, живущие в ... 8.5 10 4
Торрент: Зарегистрирован [2021-09-10 18:19] · скачан: 38 раз
Статус: √ проверено
Размер: 710 MB
Как cкачать? Как скачать Хищники через торрент | UTorrent

% Раздел Тема Автор DL S | L
Фильмы (WEB-DL 720p, 1080p) [ 8.76 GB ] Хищники / I predatori [2020 WEB-DL 1080p] [MVO] killermax2013 Скачать
9 | 0
Фильмы 2019-2020 [DVDrip, WEB-DLRip, HDrip] (DUB, MVO) [ 1.46 GB ] Хищники / I predatori [2020 WEB-DLRip] [MVO] killermax2013 Скачать
13 | 0
Фильмы до 2000 г. [ 1.46 GB ] Хищники Атлантиды / Налётчики из Атлантиды / I predatori di Atlantide / The Raiders of Atlantis / The Atlantis Interceptors [1983 VHSRip] VO + Original -=Cherry=- Скачать
2 | 0

28-11-2019 20:33  

Отключить всю рекламу на сайте

10-09-2021 18:57 Хищники Скачать торрент  

фигняpiratbit.org



    Дорогой пользователь! Огромная просьба, поблагодарите релизера, оцените раздачу и оставьте свои комментарий, если Вы скачали Хищники через торрент бесплатно!
    Комментировать посты могут только пользователи прошедшие не сложную регистрацию
    Показать сообщения:    

    Хищники через торрент
    Скачать бесплатно Хищники
    Хищники скачать торрент
    Хищники смотреть онлайн
    Cкачать фильм Хищники бесплатно
    Хищники скачать торрент в хорошем качестве
    Хищники смотреть онлайн бесплатно в хорошем качестве


    Вы не можете начинать темы
    Вы не можете отвечать на сообщения
    Вы не можете редактировать свои сообщения
    Вы не можете удалять свои сообщения
    Вы не можете голосовать в опросах
    Вы не можете прикреплять файлы к сообщениям
    Вы можете скачивать файлы