>

5.6

iTunes

6.1

MVO

5.7

MVO

1

7.4

1 сезон

6.8

iTunes

7.2

1 сезон

13

6.7

1 сезон

8.3

RePack

30

Deluxe

pack

9.9

Лицензия

ВАЖНО

ИГРА 18+

pack

7.3

RePack

MK11

7.7

RePack

jed

7.8

RePack

fifa19

8.5

RePack

RDR2

RePack

NEED FOR SPEED™ PAYBACK

4 сезон

9 сезон

Бесстыжие 9 сезон

Все сериалы

все сериалы на PB.wtf

RePack

FAR CRY 5

Anonymous, добрый день, мы катастрофически не успеваем собрать деньги на оплату серверов, помогите нам пожалуйста 5,10,15р., для нас важна любая помощь . В качестве благодарности мы отключим Вам всю рекламу на сайте (укажите свой ник в строку Ваше имя)!

×
  
Magnet ссылка

Босс-молокосос 2 / The Boss Baby: Family Business (Том МакГрат) [2021, Мультфильм, комедия, приключения, семейный, BDRip 1080p] DVO [Pazl Voice] piratbit.org

Босс-молокосос 2 через торрент piratbit.org

Раздают: 37 [ 3 MB/s ] Качают: 2 [ 0 KB/s ]
Размер: 8.03 GB | Добавлен: 13 д. назад | Торрент скачан:408 раз
Смотреть онлайн Босс-молокосос 2 | Скачать    Ребята, помогите собрать деньги на оплату серверов!!!

11-09-2021 10:03 Босс-молокосос 2 Скачать торрент  

Босс-молокосос 2
The Boss Baby: Family Business

Год выпуска: 2021
Страна: США
Студия: DreamWorks Animation
Жанр: Мультфильм, комедия, приключения, семейный
Продолжительность: 01:47:13
Перевод: Любительский (двухголосый) | Pazl Voice
Субтитры: Русские (Full), английские

Режиссер: Том МакГрат

rating

В ролях: Алек Болдуин, Джеймс Марсден, Эми Седарис, Ариана Гринблатт, Джефф Голдблюм, Ева Лонгория, Джеймс МакГрат, Джимми Киммел, Лиза Кудроу, Рафаэль Алехандро, Серенити Рейн Браун, Дэвид Сорен, Николас Гист, Джеймс Райан

Описание: Братья Тим и Тед давно повзрослели и отдалились друг от друга. Тед стал генеральным директором инвестиционного фонда, а Тим посвятил себя семье. Он женился, поселился в пригороде и обзавелся двумя прекрасными дочерьми — Тиной и Табитой. 7-летняя Табита — умная и очень усердная. Несмотря на свой юный возраст, она уже лучшая в классе, а малышка Тина на самом деле оказывается агентом компании BabyCorp. Узнав, что злой гений доктор Эрвин Армстронг выращивает целую армию злобных малышей, Тина с помощью своего папы и дяди решает противостоять ему.

Качество: BDRip 1080p
Формат: MKV

Видео: MPEG-4 AVC, 9637 Kбит/с, 1920x804, 23.976 кадр/с
Аудио #1: Русский (АС3, 6 ch, 448 Кбит/с, 48.0 KHz) Любительский (двухголосый, закадровый) Pazl Voice
Аудио #2: Английский (АС3, 6 ch, 640 Кбит/с, 48.0 KHz)
скриншот  скриншот  скриншот  скриншот  скриншот  

Источник: The.Boss.Baby.Family.Business.2021.1080p.BluRay.x264.DTS-MT
General
Unique ID : 187694944460523788966873673203210761036 (0x8D34BB3CAE3A938998969CA1F1FFB34C)
Complete name : The.Boss.Baby.Family.Business.2021.BDRip.1080p.mkv
Format : Matroska
Format version : Version 4 / Version 2
File size : 8.03 GiB
Duration : 1 h 47 min
Overall bit rate : 10.7 Mb/s
Encoded date : UTC 2021-09-11 08:47:02
Writing application : mkvmerge v7.1.0 ('Good Love') 64bit built on Jul 27 2014 13:06:55
Writing library : libebml v1.3.0 + libmatroska v1.4.1

Video
ID : 1
Format : AVC
Format/Info : Advanced Video Codec
Format profile : High@L4.1
Format settings, CABAC : Yes
Format settings, RefFrames : 5 frames
Codec ID : V_MPEG4/ISO/AVC
Duration : 1 h 47 min
Bit rate : 9 637 kb/s
Width : 1 920 pixels
Height : 804 pixels
Display aspect ratio : 2.40:1
Frame rate mode : Constant
Frame rate : 23.976 (24000/1001) FPS
Color space : YUV
Chroma subsampling : 4:2:0
Bit depth : 8 bits
Scan type : Progressive
Bits/(Pixel*Frame) : 0.260
Stream size : 7.22 GiB (90%)
Writing library : x264 core 157 r2938 2b00a84 TnP@MTeam Mod
Encoding settings : cabac=1 / ref=5 / deblock=1:-3:-3 / analyse=0x3:0x133 / me=umh / subme=10 / psy=1 / psy_rd=1.05:0.00 / mixed_ref=1 / me_range=32 / chroma_me=1 / trellis=2 / 8x8dct=1 / cqm=0 / deadzone=21,11 / fast_pskip=0 / chroma_qp_offset=-2 / threads=12 / lookahead_threads=2 / sliced_threads=0 / nr=0 / decimate=0 / interlaced=0 / bluray_compat=0 / constrained_intra=0 / bframes=8 / b_pyramid=2 / b_adapt=2 / b_bias=0 / direct=3 / weightb=1 / open_gop=0 / weightp=2 / keyint=250 / keyint_min=24 / scenecut=40 / intra_refresh=0 / rc_lookahead=250 / rc=crf / mbtree=0 / crf=16.8 / qcomp=0.60 / qpmin=0 / qpmax=69 / qpstep=4 / vbv_maxrate=62500 / vbv_bufsize=78125 / crf_max=0.0 / nal_hrd=none / filler=0 / ip_ratio=1.30 / pb_ratio=1.20 / aq=3:0.80
Language : English
Default : Yes
Forced : No
Color range : Limited
Color primaries : BT.709
Matrix coefficients : BT.709

Audio #1
ID : 2
Format : AC-3
Format/Info : Audio Coding 3
Format settings, Endianness : Big
Codec ID : A_AC3
Duration : 1 h 47 min
Bit rate mode : Constant
Bit rate : 448 kb/s
Channel(s) : 6 channels
Channel positions : Front: L C R, Side: L R, LFE
Sampling rate : 48.0 kHz
Frame rate : 31.250 FPS (1536 SPF)
Bit depth : 16 bits
Compression mode : Lossy
Stream size : 344 MiB (4%)
Title : DVO | Pazl Voice
Language : Russian
Service kind : Complete Main
Default : Yes
Forced : No

Audio #2
ID : 3
Format : AC-3
Format/Info : Audio Coding 3
Format settings, Endianness : Big
Codec ID : A_AC3
Duration : 1 h 47 min
Bit rate mode : Constant
Bit rate : 640 kb/s
Channel(s) : 6 channels
Channel positions : Front: L C R, Side: L R, LFE
Sampling rate : 48.0 kHz
Frame rate : 31.250 FPS (1536 SPF)
Bit depth : 16 bits
Compression mode : Lossy
Stream size : 491 MiB (6%)
Language : English
Service kind : Complete Main
Default : No
Forced : No

Text #1
ID : 4
Format : UTF-8
Codec ID : S_TEXT/UTF8
Codec ID/Info : UTF-8 Plain Text
Duration : 1 h 37 min
Bit rate : 129 b/s
Count of elements : 1945
Stream size : 92.6 KiB (0%)
Language : Russian
Default : No
Forced : No

Text #2
ID : 5
Format : UTF-8
Codec ID : S_TEXT/UTF8
Codec ID/Info : UTF-8 Plain Text
Duration : 1 h 40 min
Bit rate : 82 b/s
Count of elements : 2172
Stream size : 61.0 KiB (0%)
Title : SRT
Language : English
Default : No
Forced : No

Menu
00:00:00.000 : en:Chapter 01
00:04:18.383 : en:Chapter 02
00:09:50.673 : en:Chapter 03
00:13:43.364 : en:Chapter 04
00:19:51.816 : en:Chapter 05
00:24:55.119 : en:Chapter 06
00:29:12.125 : en:Chapter 07
00:34:22.018 : en:Chapter 08
00:38:09.245 : en:Chapter 09
00:44:36.299 : en:Chapter 10
00:51:25.124 : en:Chapter 11
01:00:47.853 : en:Chapter 12
01:04:54.474 : en:Chapter 13
01:08:08.209 : en:Chapter 14
01:13:27.403 : en:Chapter 15
01:18:38.172 : en:Chapter 16
01:22:44.418 : en:Chapter 17
01:27:13.437 : en:Chapter 18
01:35:06.701 : en:Chapter 19
01:38:13.721 : en:Chapter 20

piratbit.org



Скачать Босс-молокосос 2 через торрент http://b.radikal.ru/b28/2109/9e/cb97a3c11d15.jpg Скачать, смотреть онлайн Босс-молокосос 2 бесплантно в хорошем качестве Описание: Братья Тим и Тед давно повзрослели и отдалились друг от друга. Тед стал генеральным директором инвестиционного фонда, а Тим ... 9.6 10 17
Торрент: Зарегистрирован [2021-09-11 10:03] · скачан: 408 раз
Статус: T временная
Размер: 8.03 GB
Как cкачать? Как скачать Босс-молокосос 2 через торрент | UTorrent

28-11-2019 20:33  

Отключить всю рекламу на сайте

    Дорогой пользователь! Огромная просьба, поблагодарите релизера, оцените раздачу и оставьте свои комментарий, если Вы скачали Босс-молокосос 2 через торрент бесплатно!
    Комментировать посты могут только пользователи прошедшие не сложную регистрацию
    Показать сообщения:    

    Босс-молокосос 2 через торрент
    Скачать бесплатно Босс-молокосос 2
    Босс-молокосос 2 скачать торрент
    Босс-молокосос 2 смотреть онлайн
    Cкачать фильм Босс-молокосос 2 бесплатно
    Босс-молокосос 2 скачать торрент в хорошем качестве
    Босс-молокосос 2 смотреть онлайн бесплатно в хорошем качестве


    Вы не можете начинать темы
    Вы не можете отвечать на сообщения
    Вы не можете редактировать свои сообщения
    Вы не можете удалять свои сообщения
    Вы не можете голосовать в опросах
    Вы не можете прикреплять файлы к сообщениям
    Вы можете скачивать файлы