>

5.6

iTunes

6.1

MVO

5.7

MVO

1

7.4

1 сезон

6.8

iTunes

7.2

1 сезон

13

6.7

1 сезон

8.3

RePack

30

Deluxe

pack

9.9

Лицензия

ВАЖНО

ИГРА 18+

pack

7.3

RePack

MK11

7.7

RePack

jed

7.8

RePack

fifa19

8.5

RePack

RDR2

RePack

NEED FOR SPEED™ PAYBACK

4 сезон

9 сезон

Бесстыжие 9 сезон

Все сериалы

все сериалы на PB.wtf

RePack

FAR CRY 5

Anonymous, добрый вечер, мы катастрофически не успеваем собрать деньги на оплату серверов, помогите нам пожалуйста 5,10,15р., для нас важна любая помощь . В качестве благодарности мы отключим Вам всю рекламу на сайте (укажите свой ник в строку Ваше имя)!

×
  
Magnet ссылка

Историк / Сезон: 1 / Серии: 1-8 из 16 (Александр Данилов (IV), Олег Кириченко) [2021, Детектив, триллер, SATRip] piratbit.org

Историк через торрент piratbit.org

Раздают: 1 [ 204 KB/s ] Качают: 3 [ 0 KB/s ]
Размер: 4.88 GB | Добавлен: 1 д. 22 ч. назад | Торрент скачан:2 раза
Смотреть онлайн Историк | Скачать    Ребята, помогите собрать деньги на оплату серверов!!!

13-09-2021 11:52 Историк Скачать торрент  

Историк
Год выпуска: 2021
Страна: Россия
Жанр: Детектив, триллер
Продолжительность: ~ 00:50:00
Перевод: Не требуется
Субтитры: отсутствуют

Режиссер: Александр Данилов (IV), Олег Кириченко



В ролях: Павел Артемьев, Мария Луговая, Никита Панов, Олег Суховерхов, Михаил Шкамаридин, Алиса Лисичкина, Ульяна Донскова, Михаил Кремер, Сергей Пиоро, Максим Битюков, Василий Молодцов (II), Владимир Пачин, Александра Романова, Алёна Чехова, Виктор Конухин

Описание: Андрей Викторович Изворин – очень творческий человек. Он рисует комиксы и издаёт их под псевдонимом Хантер, а в остальное время преподаёт историю в вузе и искренне любит свой предмет. Изворин придумал теорию, согласно которой каждое нераскрытое преступление, в том числе, если за него был наказан невиновный человек, неизбежно повторяется. Умение рисовать и думать картинками, а также знание истории помогают ему и следователю Анне Рыбаковой идти по следу самых необычных маньяков и раскрывать самые запутанные убийства.

Качество: SATRip
Формат: AVI

Видео: XviD, ~ 1550 Кбит/с, 720x400
Аудио: MP3, 2 ch, 192 Кбит/с
скриншот  скриншот  скриншот  скриншот  

Общее
Полное имя : D:\Istorik.2021.XviD.SATRip.25Kuzmich\Istorik.e01.XviD.SATRip.25Kuzmich.avi
Формат : AVI
Формат/Информация : Audio Video Interleave
Размер файла : 625 Мбайт
Продолжительность : 49 м. 53 с.
Общий поток : 1 751 Кбит/сек
Программа кодирования : VirtualDubMod 1.5.10.3 | www.virtualdub-fr.org || (build 2550/release)
Библиотека кодирования : VirtualDubMod build 2550/release

Видео
Идентификатор : 0
Формат : MPEG-4 Visual
Профиль формата : Advanced Simple@L5
Настройки формата : BVOP1
Параметр BVOP формата : 1
Параметр QPel формата : Нет
Параметр GMC формата : Без точки перехода
Параметр матрицы формата : Default (MPEG)
Идентификатор кодека : XVID
Идентификатор кодека/Подсказка : XviD
Продолжительность : 49 м. 53 с.
Битрейт : 1 480 Кбит/сек
Ширина : 720 пикселей
Высота : 400 пикселей
Соотношение сторон : 16:9
Частота кадров : 25,000 кадров/сек
Цветовое пространство : YUV
Субдискретизация насыщенности : 4:2:0
Битовая глубина : 8 бит
Тип развёртки : Прогрессивная
Метод сжатия : С потерями
Бит/(Пиксели*Кадры) : 0.206
Размер потока : 528 Мбайт (85%)
Библиотека кодирования : XviD 73

Аудио
Идентификатор : 1
Формат : MPEG Audio
Версия формата : Version 1
Профиль формата : Layer 3
Настройки формата : Joint stereo / MS Stereo
Идентификатор кодека : 55
Идентификатор кодека/Подсказка : MP3
Продолжительность : 49 м. 53 с.
Вид битрейта : Постоянный
Битрейт : 192 Кбит/сек
Каналы : 2 канала
Частота : 48,0 КГц
Частота кадров : 41,667 кадра/сек (1152 SPF)
Метод сжатия : С потерями
Размер потока : 68,5 Мбайт (11%)
Выравнивание : Соединение по промежуткам
Библиотека кодирования : LAME3.99r
Настройки программы : -m j -V 4 -q 2 -lowpass 18.6 -b 192

Когда раздача ведётся путём добавления новых серий, при каждом добавлении создётся новый торрент. Чтобы начать докачку новой серии, пользователям необходимо сделать следующее:
(1) остановить скачивание,
(2) удалить старый торрент у себя из клиента (старые серии удалять не надо),
(3) скачать новый торрент и запустить его у себя в клиенте вместо старого, при этом указать клиенту путь в старую папку, куда и должно происходить скачивание новых серий.
Ваш клиент при этом должен произвести хеширование (проверку) старой папки (если не производит сам - помогите ему сделать это), и будет докачивать только те серии, которых у вас ещё нет. Старые серии при этом не удаляются, а продолжают раздаваться!
Eсли вы уже удалили старые серии, то предотвратить повторную закачку старых серий можно, отжав галочку в соответсвующих местах при запуске нового торрента. По возможности, желательно не удалять старые серии как можно дольше, чтобы релизёр не столько продолжал раздавать старые серии, а смог сконцентрироваться на новых.

piratbit.org



Скачать Историк через торрент https://i115.fastpic.org/big/2021/0913/ae/aac24a099de3786a3d97aed9f56447ae.jpg Скачать, смотреть онлайн Историк бесплантно в хорошем качестве Описание: Андрей Викторович Изворин – очень творческий человек. Он рисует комиксы и издаёт их под псевдонимом Хантер, а в остальное время ... 10 10 7
Торрент: Зарегистрирован [2021-09-23 17:50] · скачан: 2 раз
Статус: √ проверено
Размер: 4.88 GB
Как cкачать? Как скачать Историк через торрент | UTorrent

% Раздел Тема Автор DL S | L
Наши сериалы [ 4.89 GB ] Историк / Сезон: 1 / Серии: 1-8 из 16 Олег Кириченко) [2021 WEBRip-AVC] bober100 Скачать
3 | 5
Наши сериалы [ 8.45 GB ] Историк / Сезон: 1 / Серии: 1-8 из 16 Олег Кириченко) [2021 WEBRip 720p] bober100 Скачать
1 | 0
Наши сериалы [ 12.43 GB ] Историк / Сезон: 1 / Серии: 1-8 из 16 Олег Кириченко) [2021 WEBRip 1080p] bober100 Скачать
3 | 1


Последний раз редактировалось: bober100 (2021-09-23 17:50), всего редактировалось 3 раз(а)

28-11-2019 20:33  

Отключить всю рекламу на сайте

16-09-2021 13:14 Историк Скачать торрент  

Корень в сериал подался?piratbit.org



    Дорогой пользователь! Огромная просьба, поблагодарите релизера, оцените раздачу и оставьте свои комментарий, если Вы скачали Историк через торрент бесплатно!
    Комментировать посты могут только пользователи прошедшие не сложную регистрацию
    Показать сообщения:    

    Историк через торрент
    Скачать бесплатно Историк
    Историк скачать торрент
    Историк смотреть онлайн
    Cкачать фильм Историк бесплатно
    Историк скачать торрент в хорошем качестве
    Историк смотреть онлайн бесплатно в хорошем качестве


    Вы не можете начинать темы
    Вы не можете отвечать на сообщения
    Вы не можете редактировать свои сообщения
    Вы не можете удалять свои сообщения
    Вы не можете голосовать в опросах
    Вы не можете прикреплять файлы к сообщениям
    Вы можете скачивать файлы