>

5.6

iTunes

6.1

MVO

5.7

MVO

1

7.4

1 сезон

6.8

iTunes

7.2

1 сезон

13

6.7

1 сезон

8.3

RePack

30

Deluxe

pack

9.9

Лицензия

ВАЖНО

ИГРА 18+

pack

7.3

RePack

MK11

7.7

RePack

jed

7.8

RePack

fifa19

8.5

RePack

RDR2

RePack

NEED FOR SPEED™ PAYBACK

4 сезон

9 сезон

Бесстыжие 9 сезон

Все сериалы

все сериалы на PB.wtf

RePack

FAR CRY 5

Anonymous, добрый день, мы катастрофически не успеваем собрать деньги на оплату серверов, помогите нам пожалуйста 5,10,15р., для нас важна любая помощь . В качестве благодарности мы отключим Вам всю рекламу на сайте (укажите свой ник в строку Ваше имя)!

×
  
Magnet ссылка

Спросите медсестру / Сезон: 1 / Серии: 1-8 из 8 (Дмитрий Петрунь) [2021, Мелодрама, SATRip] piratbit.org

Спросите медсестру через торрент piratbit.org

Раздают: 9 [ 215 KB/s ] Качают: 1 [ 0 KB/s ]
Размер: 4.69 GB | Добавлен: 7 д. назад | Торрент скачан:61 раз
Смотреть онлайн Спросите медсестру | Скачать    Ребята, помогите собрать деньги на оплату серверов!!!

13-09-2021 14:07 Спросите медсестру Скачать торрент  

Спросите медсестру
Год выпуска: 2021
Страна: Россия
Выпущено: Epic Media, Петрофильм продакшн
Жанр: Мелодрама
Продолжительность: ~ 00:50:00
Субтитры: отсутствуют

Режиссер: Дмитрий Петрунь



В ролях: Елена Панова, Павел Южаков-Харланчук, Елена Руфанова, Ульяна Плащевская, Валерий Кухарешин, Соня Присс, Илья Шакунов, Егор Лесников, Мария Фефилова, Андрей Некрасов, Мария Валешная, Алексей Фокин, Эмилия Спивак, Лариса Климова, Олег Фёдоров, Александр Дюрис, Юлия Марченко, Маргарита Бычкова, Мария Кефчиянц, Екатерина Королева, Пётр Терещенко, Кристина Пирожкова, Александр Малахов, Алёна Савастова

Описание: Валерия – талантливый врач-реаниматолог. Работа в престижной столичной клинике, планы дочери на поступление в ВУЗ, роман с главврачом – все это рушится, когда Валерия, спасая наркозависимую девочку от передозировки, идет на крайние меры и терпит неудачу. Отец девочки, влиятельный человек, Ревзин, лишает Валерию права практиковать в качестве врача и даже готов – око за око – навредить ее дочери. Валерия вынуждена уехать в Петрозаводск и устроиться в больницу обычной медсестрой, использовав свой диплом об окончании медучилища. Ее задача – неприметно работать, не выдавая своих врачебных навыков и не привлекая внимания, а цель – спасти дочь…

Качество: SATRip
Формат: AVI

Видео: XviD, ~ 1550 Кбит/с, 720x400, 25 кадр/с
Аудио: MP3, 2 ch, 192 Кбит/с
скриншот  скриншот  скриншот  скриншот  

Общее
Полное имя : D:\Sprosite.medsestru.2021.XviD.SATRip.25Kuzmich\Sprosite.medsestru.e01.XviD.SATRip.25Kuzmich.avi
Формат : AVI
Формат/Информация : Audio Video Interleave
Размер файла : 600 Мбайт
Продолжительность : 50 м. 53 с.
Общий поток : 1 648 Кбит/сек
Программа кодирования : VirtualDubMod 1.5.10.3 | www.virtualdub-fr.org || (build 2550/release)
Библиотека кодирования : VirtualDubMod build 2550/release

Видео
Идентификатор : 0
Формат : MPEG-4 Visual
Профиль формата : Advanced Simple@L5
Настройки формата : BVOP1
Параметр BVOP формата : 1
Параметр QPel формата : Нет
Параметр GMC формата : Без точки перехода
Параметр матрицы формата : Default (MPEG)
Идентификатор кодека : XVID
Идентификатор кодека/Подсказка : XviD
Продолжительность : 50 м. 53 с.
Битрейт : 1 482 Кбит/сек
Ширина : 720 пикселей
Высота : 400 пикселей
Соотношение сторон : 16:9
Частота кадров : 25,000 кадров/сек
Цветовое пространство : YUV
Субдискретизация насыщенности : 4:2:0
Битовая глубина : 8 бит
Тип развёртки : Прогрессивная
Метод сжатия : С потерями
Бит/(Пиксели*Кадры) : 0.192
Размер потока : 503 Мбайт (84%)
Библиотека кодирования : XviD 73

Аудио
Идентификатор : 1
Формат : MPEG Audio
Версия формата : Version 1
Профиль формата : Layer 3
Настройки формата : Joint stereo / MS Stereo
Идентификатор кодека : 55
Идентификатор кодека/Подсказка : MP3
Продолжительность : 50 м. 53 с.
Вид битрейта : Постоянный
Битрейт : 192 Кбит/сек
Каналы : 2 канала
Частота : 48,0 КГц
Частота кадров : 41,667 кадра/сек (1152 SPF)
Метод сжатия : С потерями
Размер потока : 69,9 Мбайт (12%)
Выравнивание : Соединение по промежуткам
Библиотека кодирования : LAME3.99r
Настройки программы : -m j -V 4 -q 2 -lowpass 18.6 -b 192

Внимание! Раздача ведётся путём добавления новых серий; при каждом добавлении создаётся новый торрент.
Чтобы начать докачку новой серии, пользователям необходимо сделать следующее:
1. Остановить скачивание;
2. Удалить старый торрент у себя из клиента (старые серии удалять не надо);
3. Скачать новый торрент и запустить его у себя в клиенте вместо старого, при этом указать клиенту путь в старую папку куда и должно происходить скачивание новых серий. Ваш клиент при этом должен произвести хеширование (проверку) старой папки и будет докачивать только те серии, которых у вас ещё нет. Старые серии при этом не удаляются, а продолжают раздаваться! Eсли вы уже удалили старые серии, то предотвратить повторную закачку старых серий можно, отжав галочку в соответствующих местах при запуске нового торрента.

piratbit.org



Скачать Спросите медсестру через торрент https://i115.fastpic.org/big/2021/0912/6b/80da1531346204c25c34b4aebbe55c6b.jpg Скачать, смотреть онлайн Спросите медсестру бесплантно в хорошем качестве Описание: Валерия – талантливый врач-реаниматолог. Работа в престижной столичной клинике, планы дочери на поступление в ВУЗ, роман с ... 10 10 3
Торрент: Зарегистрирован [2021-09-16 14:13] · скачан: 61 раз
Статус: √ проверено
Размер: 4.69 GB
Как cкачать? Как скачать Спросите медсестру через торрент | UTorrent

28-11-2019 20:33  

Отключить всю рекламу на сайте

    Дорогой пользователь! Огромная просьба, поблагодарите релизера, оцените раздачу и оставьте свои комментарий, если Вы скачали Спросите медсестру через торрент бесплатно!
    Комментировать посты могут только пользователи прошедшие не сложную регистрацию
    Показать сообщения:    

    Спросите медсестру через торрент
    Скачать бесплатно Спросите медсестру
    Спросите медсестру скачать торрент
    Спросите медсестру смотреть онлайн
    Cкачать фильм Спросите медсестру бесплатно
    Спросите медсестру скачать торрент в хорошем качестве
    Спросите медсестру смотреть онлайн бесплатно в хорошем качестве


    Вы не можете начинать темы
    Вы не можете отвечать на сообщения
    Вы не можете редактировать свои сообщения
    Вы не можете удалять свои сообщения
    Вы не можете голосовать в опросах
    Вы не можете прикреплять файлы к сообщениям
    Вы можете скачивать файлы