>

5.6

iTunes

6.1

MVO

5.7

MVO

1

7.4

1 сезон

6.8

iTunes

7.2

1 сезон

13

6.7

1 сезон

8.3

RePack

30

Deluxe

pack

9.9

Лицензия

ВАЖНО

ИГРА 18+

pack

7.3

RePack

MK11

7.7

RePack

jed

7.8

RePack

fifa19

8.5

RePack

RDR2

RePack

NEED FOR SPEED™ PAYBACK

4 сезон

9 сезон

Бесстыжие 9 сезон

Все сериалы

все сериалы на PB.wtf

RePack

FAR CRY 5

Anonymous, добрый вечер, мы катастрофически не успеваем собрать деньги на оплату серверов, помогите нам пожалуйста 5,10,15р., для нас важна любая помощь . В качестве благодарности мы отключим Вам всю рекламу на сайте (укажите свой ник в строку Ваше имя)!

×
  
Magnet ссылка

Историк / Сезон: 1 / Серии: 1-8 из 16 (Александр Данилов (IV), Олег Кириченко) [2021, Детектив, триллер, WEBRip 1080p] piratbit.org

Историк через торрент piratbit.org

Раздают: 2 [ 566 KB/s ] Качают: 1 [ 0 KB/s ]
Размер: 12.43 GB | Добавлен: 1 д. 11 ч. назад | Торрент скачан:2 раза
Смотреть онлайн Историк | Скачать    Ребята, помогите собрать деньги на оплату серверов!!!

13-09-2021 17:39 Историк Скачать торрент  

Историк
Год выпуска: 2021
Страна: Россия
Жанр: Детектив, триллер
Продолжительность: ~ 00:50:00
Перевод: Не требуется
Субтитры: отсутствуют

Режиссер: Александр Данилов (IV), Олег Кириченко



В ролях: Павел Артемьев, Мария Луговая, Никита Панов, Олег Суховерхов, Михаил Шкамаридин, Алиса Лисичкина, Ульяна Донскова, Михаил Кремер, Сергей Пиоро, Максим Битюков, Василий Молодцов (II), Владимир Пачин, Александра Романова, Алёна Чехова, Виктор Конухин

Описание: Андрей Викторович Изворин – очень творческий человек. Он рисует комиксы и издаёт их под псевдонимом Хантер, а в остальное время преподаёт историю в вузе и искренне любит свой предмет. Изворин придумал теорию, согласно которой каждое нераскрытое преступление, в том числе, если за него был наказан невиновный человек, неизбежно повторяется. Умение рисовать и думать картинками, а также знание истории помогают ему и следователю Анне Рыбаковой идти по следу самых необычных маньяков и раскрывать самые запутанные убийства.

Качество: WEBRip 1080p
Формат: MKV

Видео: MPEG-4 AVC, 1920x1072, ~ 4500 Кбит/с, 0.087 bit/pixel, 25 Кадр/с
Аудио: 48.0 kHz, AC3 Dolby Digital, 2/0 (L,R) ch, ~ 192 kbps
скриншот  скриншот  скриншот  скриншот  скриншот  

Общее
Уникальный идентификатор : 254490744199872609396684042732942954326 (0xBF75226D70267FF9B450736E15908F56)
Полное имя : D:\Istorik.2021.WEB-DL.(1080p).Getty\Istorik.e01.2021.WEB-DL.(1080p).Getty.mkv
Формат : Matroska
Версия формата : Version 4
Размер файла : 1,64 Гбайт
Продолжительность : 50 м. 16 с.
Режим общего битрейта : Переменный
Общий поток : 4 683 Кбит/сек
Название фильма : Istorik.e01.2021.WEB-DL.(1080p).Getty
Дата кодирования : UTC 2021-09-13 17:33:06
Программа кодирования : mkvmerge v7.8.0 ('River Man') 32bit built on Mar 27 2015 16:18:02
Библиотека кодирования : libebml v1.3.1 + libmatroska v1.4.2

Видео
Идентификатор : 1
Формат : AVC
Формат/Информация : Advanced Video Codec
Профиль формата : High@L4
Настройки формата : CABAC / 1 Ref Frames
Параметр CABAC формата : Да
Параметр RefFrames формата : 1 кадр
Параметр GOP формата : M=1, N=50
Идентификатор кодека : V_MPEG4/ISO/AVC
Продолжительность : 50 м. 16 с.
Вид битрейта : Переменный
Битрейт : 4 500 Кбит/сек
Ширина : 1 920 пикселей
Высота : 1 072 пикселя
Соотношение сторон : 16:9
Режим частоты кадров : Постоянный
Частота кадров : 25,000 кадров/сек
Цветовое пространство : YUV
Субдискретизация насыщенности : 4:2:0
Битовая глубина : 8 бит
Тип развёртки : Прогрессивная
Бит/(Пиксели*Кадры) : 0.087
Размер потока : 1,58 Гбайт (96%)
Default : Да
Forced : Нет

Аудио
Идентификатор : 2
Формат : AC-3
Формат/Информация : Audio Coding 3
Коммерческое название : Dolby Digital
Идентификатор кодека : A_AC3
Продолжительность : 50 м. 16 с.
Вид битрейта : Постоянный
Битрейт : 192 Кбит/сек
Каналы : 2 канала
Channel layout : L R
Частота : 48,0 КГц
Частота кадров : 31,250 кадров/сек (1536 SPF)
Метод сжатия : С потерями
Размер потока : 69,0 Мбайт (4%)
Service kind : Complete Main
Default : Да
Forced : Нет

Когда раздача ведётся путём добавления новых серий, при каждом добавлении создётся новый торрент. Чтобы начать докачку новой серии, пользователям необходимо сделать следующее:
(1) остановить скачивание,
(2) удалить старый торрент у себя из клиента (старые серии удалять не надо),
(3) скачать новый торрент и запустить его у себя в клиенте вместо старого, при этом указать клиенту путь в старую папку, куда и должно происходить скачивание новых серий.
Ваш клиент при этом должен произвести хеширование (проверку) старой папки (если не производит сам - помогите ему сделать это), и будет докачивать только те серии, которых у вас ещё нет. Старые серии при этом не удаляются, а продолжают раздаваться!
Eсли вы уже удалили старые серии, то предотвратить повторную закачку старых серий можно, отжав галочку в соответсвующих местах при запуске нового торрента. По возможности, желательно не удалять старые серии как можно дольше, чтобы релизёр не столько продолжал раздавать старые серии, а смог сконцентрироваться на новых.

piratbit.org



Скачать Историк через торрент https://i115.fastpic.org/big/2021/0913/ae/aac24a099de3786a3d97aed9f56447ae.jpg Скачать, смотреть онлайн Историк бесплантно в хорошем качестве Описание: Андрей Викторович Изворин – очень творческий человек. Он рисует комиксы и издаёт их под псевдонимом Хантер, а в остальное время ... 10 10 3
Торрент: Зарегистрирован [2021-09-24 03:29] · скачан: 2 раз
Статус: √ проверено
Размер: 12.43 GB
Как cкачать? Как скачать Историк через торрент | UTorrent

% Раздел Тема Автор DL S | L
Наши сериалы [ 4.88 GB ] Историк / Сезон: 1 / Серии: 1-8 из 16 Олег Кириченко) [2021 SATRip] bober100 Скачать
3 | 3
Наши сериалы [ 4.89 GB ] Историк / Сезон: 1 / Серии: 1-8 из 16 Олег Кириченко) [2021 WEBRip-AVC] bober100 Скачать
4 | 4
Наши сериалы [ 8.45 GB ] Историк / Сезон: 1 / Серии: 1-8 из 16 Олег Кириченко) [2021 WEBRip 720p] bober100 Скачать
1 | 0

28-11-2019 20:33  

Отключить всю рекламу на сайте

    Дорогой пользователь! Огромная просьба, поблагодарите релизера, оцените раздачу и оставьте свои комментарий, если Вы скачали Историк через торрент бесплатно!
    Комментировать посты могут только пользователи прошедшие не сложную регистрацию
    Показать сообщения:    

    Историк через торрент
    Скачать бесплатно Историк
    Историк скачать торрент
    Историк смотреть онлайн
    Cкачать фильм Историк бесплатно
    Историк скачать торрент в хорошем качестве
    Историк смотреть онлайн бесплатно в хорошем качестве


    Вы не можете начинать темы
    Вы не можете отвечать на сообщения
    Вы не можете редактировать свои сообщения
    Вы не можете удалять свои сообщения
    Вы не можете голосовать в опросах
    Вы не можете прикреплять файлы к сообщениям
    Вы можете скачивать файлы