>

5.6

iTunes

6.1

MVO

5.7

MVO

1

7.4

1 сезон

6.8

iTunes

7.2

1 сезон

13

6.7

1 сезон

8.3

RePack

30

Deluxe

pack

9.9

Лицензия

ВАЖНО

ИГРА 18+

pack

7.3

RePack

MK11

7.7

RePack

jed

7.8

RePack

fifa19

8.5

RePack

RDR2

RePack

NEED FOR SPEED™ PAYBACK

4 сезон

9 сезон

Бесстыжие 9 сезон

Все сериалы

все сериалы на PB.wtf

RePack

FAR CRY 5

Anonymous, добрый день, мы катастрофически не успеваем собрать деньги на оплату серверов, помогите нам пожалуйста 5,10,15р., для нас важна любая помощь . В качестве благодарности мы отключим Вам всю рекламу на сайте (укажите свой ник в строку Ваше имя)!

×
  
Magnet ссылка

Вуайеристы / The Voyeurs (Майкл Мохан) [2021, Триллер, WEB-DL 1080p] MVO (rus, ukr) [HDRezka Studio] piratbit.org

Вуайеристы через торрент piratbit.org

Раздают: 27 [ 2 MB/s ] Качают: 1 [ 6 MB/s ]
Размер: 9.01 GB | Добавлен: 10 д. назад | Торрент скачан:239 раз
Смотреть онлайн Вуайеристы | Скачать    Ребята, помогите собрать деньги на оплату серверов!!!

14-09-2021 05:22 Вуайеристы Скачать торрент  

Вуайеристы | The Voyeurs
Год выпуска: 2021
Страна: США
Выпущено: Divide/Conquer, Amazon Studios
Жанр: Триллер
Продолжительность: 01:56:19
Перевод: Профессиональный (многоголосый) | HDRezka Studio
Субтитры: Русские (форс, полные), англинские, украинские (форс)

Режиссер: Майкл Мохан

rating

В ролях: Сидни Свини, Наташа Лю Бордиццо, Бен Харди, Джастис Смит, Кэйтлин Александр, Кэтрин Кинг, Мадлен Харви, Дэниэл Гроган, Джиллиан Харрис, Джимми Каспер

Описание: Переехав в квартиру своей мечты, Пиппа и Томас замечают, что их окна выходят прямо на квартиру напротив, невольно приглашая их стать свидетелями изменчивых отношений привлекательной пары соседей. Но опрометчивая попытка анонимного вмешательства в чужую жизнь запускает цепь событий, неизбежно ведущих к катастрофе.

Качество: WEB-DL 1080p
Формат: MKV

Видео: MPEG-4 AVC, 9618 Kбит/с, 1920x800
Аудио 1: AC3, 6 ch, 448Kbps || RUS |
Аудио 1: AC3, 6 ch, 384Kbps || UKR |
Аудио 2: E-AC3, 6 ch, 640Kbps || ENG |
скриншот  скриншот  скриншот  скриншот  скриншот  

Общее
Уникальный идентификатор : 312598739689880686525216176205469956517 (0xEB2C53CC340BF35ECDAF3E9E80C1B9A5)
Полное имя : E:TorrentsВуайеристы.2021.1080p.WEB-DL_.mkv
Формат : Matroska
Версия формата : Version 4
Размер файла : 9,01 Гбайт
Продолжительность : 1 ч. 56 м.
Общий поток : 11,1 Мбит/сек
Название фильма : Вуайеристы.2021.1080p.WEB-DL_
Дата кодирования : UTC 2021-09-14 05:04:18
Программа кодирования : mkvmerge v59.0.0 ('Shining Star') 64-bit
Библиотека кодирования : libebml v1.4.2 + libmatroska v1.6.4

Видео
Идентификатор : 1
Формат : AVC
Формат/Информация : Advanced Video Codec
Профиль формата : High@L4
Настройки формата : CABAC / 4 Ref Frames
Параметр CABAC формата : Да
Параметр RefFrames формата : 4 кадра
Идентификатор кодека : V_MPEG4/ISO/AVC
Продолжительность : 1 ч. 56 м.
Битрейт : 9 618 Кбит/сек
Ширина : 1 920 пикселей
Высота : 800 пикселей
Соотношение сторон : 2,40:1
Режим частоты кадров : Постоянный
Частота кадров : 23,976 (24000/1001) кадра/сек
Цветовое пространство : YUV
Субдискретизация насыщенности : 4:2:0
Битовая глубина : 8 бит
Тип развёртки : Прогрессивная
Бит/(Пиксели*Кадры) : 0.261
Размер потока : 7,81 Гбайт (87%)
Default : Да
Forced : Нет
Цветовой диапазон : Limited
Основные цвета : BT.709
Характеристики трансфера : BT.709
Коэффициенты матрицы : BT.709

Аудио #1
Идентификатор : 2
Формат : AC-3
Формат/Информация : Audio Coding 3
Коммерческое название : Dolby Digital
Идентификатор кодека : A_AC3
Продолжительность : 1 ч. 56 м.
Вид битрейта : Постоянный
Битрейт : 448 Кбит/сек
Каналы : 6 каналов
Channel layout : L R C LFE Ls Rs
Частота : 48,0 КГц
Частота кадров : 31,250 кадров/сек (1536 SPF)
Метод сжатия : С потерями
Размер потока : 373 Мбайт (4%)
Заголовок : HDRezka Studio
Язык : Russian
Service kind : Complete Main
Default : Да
Forced : Нет

Аудио #2
Идентификатор : 3
Формат : AC-3
Формат/Информация : Audio Coding 3
Коммерческое название : Dolby Digital
Идентификатор кодека : A_AC3
Продолжительность : 1 ч. 56 м.
Вид битрейта : Постоянный
Битрейт : 384 Кбит/сек
Каналы : 6 каналов
Channel layout : L R C LFE Ls Rs
Частота : 48,0 КГц
Частота кадров : 31,250 кадров/сек (1536 SPF)
Метод сжатия : С потерями
Размер потока : 320 Мбайт (3%)
Заголовок : HDRezka Studio
Язык : Ukrainian
Service kind : Complete Main
Default : Нет
Forced : Нет

Аудио #3
Идентификатор : 4
Формат : E-AC-3
Формат/Информация : Enhanced AC-3
Коммерческое название : Dolby Digital Plus
Идентификатор кодека : A_EAC3
Продолжительность : 1 ч. 56 м.
Вид битрейта : Постоянный
Битрейт : 640 Кбит/сек
Каналы : 6 каналов
Channel layout : L R C LFE Ls Rs
Частота : 48,0 КГц
Частота кадров : 31,250 кадров/сек (1536 SPF)
Метод сжатия : С потерями
Размер потока : 533 Мбайт (6%)
Заголовок : English
Язык : English
Service kind : Complete Main
Default : Нет
Forced : Нет

Текст #1
Идентификатор : 5
Формат : UTF-8
Идентификатор кодека : S_TEXT/UTF8
Идентификатор кодека/Информация : UTF-8 Plain Text
Продолжительность : 1 ч. 44 м.
Битрейт : 1 бит/сек
Count of elements : 29
Размер потока : 1,04 Кбайт (0%)
Заголовок : forced
Язык : Russian
Default : Да
Forced : Нет

Текст #2
Идентификатор : 6
Формат : UTF-8
Идентификатор кодека : S_TEXT/UTF8
Идентификатор кодека/Информация : UTF-8 Plain Text
Продолжительность : 1 ч. 55 м.
Битрейт : 66 бит/сек
Count of elements : 1141
Размер потока : 55,7 Кбайт (0%)
Заголовок : Russian
Язык : Russian
Default : Нет
Forced : Нет

Текст #3
Идентификатор : 7
Формат : UTF-8
Идентификатор кодека : S_TEXT/UTF8
Идентификатор кодека/Информация : UTF-8 Plain Text
Продолжительность : 1 ч. 48 м.
Битрейт : 52 бит/сек
Count of elements : 1443
Размер потока : 42,1 Кбайт (0%)
Заголовок : English
Язык : English
Default : Нет
Forced : Нет

Текст #4
Идентификатор : 8
Формат : UTF-8
Идентификатор кодека : S_TEXT/UTF8
Идентификатор кодека/Информация : UTF-8 Plain Text
Продолжительность : 1 ч. 46 м.
Битрейт : 1 бит/сек
Count of elements : 24
Размер потока : 1,04 Кбайт (0%)
Заголовок : forced
Язык : Ukrainian
Default : Нет
Forced : Нет

piratbit.org



Скачать Вуайеристы через торрент https://i1.imageban.ru/out/2021/09/10/2d2ece22b4b968e6bffda617cf0353ff.jpg Скачать, смотреть онлайн Вуайеристы бесплантно в хорошем качестве Описание: Переехав в квартиру своей мечты, Пиппа и Томас замечают, что их окна выходят прямо на квартиру напротив, невольно приглашая их ... 10 10 11
Торрент: Зарегистрирован [2021-09-14 05:22] · скачан: 239 раз
Статус: √ проверено
Размер: 9.01 GB
Как cкачать? Как скачать Вуайеристы через торрент | UTorrent

% Раздел Тема Автор DL S | L
Фильмы 2021 [DVDrip, WEB-DLRip, HDrip] (DUB, MVO) [ 1.45 GB ] Вуайеристы / The Voyeurs [2021 WEB-DLRip] MVO [HDRezka Studio] bober100 Скачать
56 | 1
Фильмы 2021 [DVDrip, WEB-DLRip, HDrip] (DUB, MVO) [ 2.67 GB ] Вуайеристы / The Voyeurs [2021 WEB-DLRip-AVC] MVO [HDRezka Studio] bober100 Скачать
17 | 0

28-11-2019 20:33  

Отключить всю рекламу на сайте

22-09-2021 16:09 Вуайеристы Скачать торрент  

грудь ништяк)piratbit.org



    Дорогой пользователь! Огромная просьба, поблагодарите релизера, оцените раздачу и оставьте свои комментарий, если Вы скачали Вуайеристы через торрент бесплатно!
    Комментировать посты могут только пользователи прошедшие не сложную регистрацию
    Показать сообщения:    

    Вуайеристы через торрент
    Скачать бесплатно Вуайеристы
    Вуайеристы скачать торрент
    Вуайеристы смотреть онлайн
    Cкачать фильм Вуайеристы бесплатно
    Вуайеристы скачать торрент в хорошем качестве
    Вуайеристы смотреть онлайн бесплатно в хорошем качестве


    Вы не можете начинать темы
    Вы не можете отвечать на сообщения
    Вы не можете редактировать свои сообщения
    Вы не можете удалять свои сообщения
    Вы не можете голосовать в опросах
    Вы не можете прикреплять файлы к сообщениям
    Вы можете скачивать файлы