>

5.6

iTunes

6.1

MVO

5.7

MVO

1

7.4

1 сезон

6.8

iTunes

7.2

1 сезон

13

6.7

1 сезон

8.3

RePack

30

Deluxe

pack

9.9

Лицензия

ВАЖНО

ИГРА 18+

pack

7.3

RePack

MK11

7.7

RePack

jed

7.8

RePack

fifa19

8.5

RePack

RDR2

RePack

NEED FOR SPEED™ PAYBACK

4 сезон

9 сезон

Бесстыжие 9 сезон

Все сериалы

все сериалы на PB.wtf

RePack

FAR CRY 5

Anonymous, добрый день, мы катастрофически не успеваем собрать деньги на оплату серверов, помогите нам пожалуйста 5,10,15р., для нас важна любая помощь . В качестве благодарности мы отключим Вам всю рекламу на сайте (укажите свой ник в строку Ваше имя)!

×
  
Magnet ссылка

Маленькие стервы Тиры Мису - Похотливые и Испорченные / Tyra Misoux's Kleine Luder - Schwanzgeil Und Verdorben (Moli) [2004 г., Teens, Feature, Hardcore, DVD9] piratbit.org

Маленькие стервы Тиры Мису - Похотливые и Испорченные через торрент piratbit.org

Раздают: 5 [ 0 KB/s ] Качают: 1 [ 0 KB/s ]
Размер: 6.59 GB | Добавлен: 9 д. назад | Торрент скачан:92 раза
Смотреть онлайн Маленькие стервы Тиры Мису - Похотливые и Испорченные | Скачать    Ребята, помогите собрать деньги на оплату серверов!!!

14-09-2021 18:29 Маленькие стервы Тиры Мису - Похотливые и Испорченные Скачать торрент  

Маленькие стервы Тиры Мису - Похотливые и Испорченные / Tyra Misoux's Kleine Luder - Schwanzgeil Und Verdorben
Год выпуска: 2004
Страна: Germany
Жанр: Teens, Feature, Hardcore
Продолжительность: 01:30:58
Субтитры: Отсутствуют

Режиссер: Moli

rating

В ролях: Tyra Misoux, Snow White, Anoushka, Sandra, Alisha, Janca, Stefan Theo

Описание: Tom und Tine, zwei Überbleibsel aus den Hippie Jahren, haben es sich zur Aufgabe gemacht, straffälIig gewordene Jugendliche zu resozialisieren. Gerade kommt mit dem Boot eine neue Gruppe auf ihrer Insel an. Mit an Bord ist Anne, gespieIt von TYRA MlSOUX. Schon während der Bootsfahrt hat sie den ersten KerI und seinen harten Schwanz vernascht. Auch Tom und Tine sind für einen guten Fick immer zu haben und man kann sich denken, dass der Aufenthalt auf der lnsel für aIIe einiges an geiIer Fick-Action zu bieten hat. Bei der Entstehung dieses Filmes habe ich viele meiner Ideen einbringen können. Mit dem Ergebnis bin ich sehr zufrieden. Ich hoffe dass er Euch auch gefällt, und Ihr beim Anschauen genau soviel Spaß habt, wie ich bei den Dreharbeiten.
Качество: DVD9
Формат: DVD Video
Видео: 720x576, MPEG 2, 7800 Кбит/сек
Аудио#1: Английский, AC3, 2 ch, 192 Кбит/сек
Аудио#2: Немецкий, AC3, 2 ch, 192 Кбит/сек
Видео
Идентификатор : 224 (0xE0)
Формат : MPEG Video
Версия формата : Version 2
Профиль формата : Main@Main
Настройки формата : BVOP
Параметр BVOP формата : Да
Параметр матрицы формата : По умолчанию
Параметр GOP формата : M=2, N=14
Структура изображения : Frame
Продолжительность : 17 м. 10 с.
Вид битрейта : Постоянный
Битрейт : 7 800 Кбит/сек
Ширина : 720 пикселей
Высота : 576 пикселей
Соотношение сторон : 4:3
Частота кадров : 25,000 кадров/сек
Стандарт вещания : PAL
Цветовое пространство : YUV
Субдискретизация насыщенности : 4:2:0
Битовая глубина : 8 бит
Тип развёртки : Чересстрочная
Порядок развёртки : Верхнее поле первое
Метод сжатия : С потерями
Бит/(Пиксели*Кадры) : 0.752
Временной код первого кадра : 20:09:00:00
Оригинал временного кода : Group of pictures header
GOP, открыто/закрыто : Закрыто
Размер потока : 956 Мбайт (93%)
Основные цвета : BT.601 PAL
Характеристики трансфера : BT.470 System B/G
Коэффициенты матрицы : BT.470 System B/G

Аудио #1
Идентификатор : 189 (0xBD)-128 (0x80)
Формат : AC-3
Формат/Информация : Audio Coding 3
Коммерческое название : Dolby Digital
Режим смешивания : DVD-Video
Продолжительность : 17 м. 10 с.
Вид битрейта : Постоянный
Битрейт : 192 Кбит/сек
Каналы : 2 канала
Channel layout : M M
Частота : 48,0 КГц
Частота кадров : 31,250 кадров/сек (1536 SPF)
Метод сжатия : С потерями
Размер потока : 23,6 Мбайт (2%)
Service kind : Complete Main

Аудио #2
Идентификатор : 189 (0xBD)-129 (0x81)
Формат : AC-3
Формат/Информация : Audio Coding 3
Коммерческое название : Dolby Digital
Режим смешивания : DVD-Video
Продолжительность : 17 м. 10 с.
Вид битрейта : Постоянный
Битрейт : 192 Кбит/сек
Каналы : 2 канала
Channel layout : M M
Частота : 48,0 КГц
Частота кадров : 31,250 кадров/сек (1536 SPF)
Метод сжатия : С потерями
Размер потока : 23,6 Мбайт (2%)
Service kind : Complete Main

скриншот   скриншот   скриншот   скриншот   скриншот   скриншот  
piratbit.org



pack Скачать Маленькие стервы Тиры Мису - Похотливые и Испорченные через торрент https://pic1.kartinco.top/new/img/2021-09/14/uxc2dupr9ludvarvwj38yrq6j.jpg Скачать, смотреть онлайн Маленькие стервы Тиры Мису - Похотливые и Испорченные бесплантно в хорошем качестве Описание: Tom und Tine, zwei Überbleibsel aus den Hippie Jahren, haben es sich zur Aufgabe gemacht, straffälIig gewordene Jugendliche zu ... 8 10 5
Info! Золотая раздача, скачанное не засчитывается.
Торрент: Зарегистрирован [2021-09-14 18:29] · скачан: 92 раз
Статус: √ проверено
Размер: 6.59 GB
Как cкачать? Как скачать Маленькие стервы Тиры Мису - Похотливые и Испорченные через торрент | UTorrent

28-11-2019 20:33  

Отключить всю рекламу на сайте

    Дорогой пользователь! Огромная просьба, поблагодарите релизера, оцените раздачу и оставьте свои комментарий, если Вы скачали Маленькие стервы Тиры Мису - Похотливые и Испорченные через торрент бесплатно!
    Комментировать посты могут только пользователи прошедшие не сложную регистрацию
    Показать сообщения:    

    Маленькие стервы Тиры Мису - Похотливые и Испорченные через торрент
    Скачать бесплатно Маленькие стервы Тиры Мису - Похотливые и Испорченные
    Маленькие стервы Тиры Мису - Похотливые и Испорченные скачать торрент
    Маленькие стервы Тиры Мису - Похотливые и Испорченные смотреть онлайн
    Cкачать фильм Маленькие стервы Тиры Мису - Похотливые и Испорченные бесплатно
    Маленькие стервы Тиры Мису - Похотливые и Испорченные скачать торрент в хорошем качестве
    Маленькие стервы Тиры Мису - Похотливые и Испорченные смотреть онлайн бесплатно в хорошем качестве


    Вы не можете начинать темы
    Вы не можете отвечать на сообщения
    Вы не можете редактировать свои сообщения
    Вы не можете удалять свои сообщения
    Вы не можете голосовать в опросах
    Вы не можете прикреплять файлы к сообщениям
    Вы можете скачивать файлы