>

5.6

iTunes

6.1

MVO

5.7

MVO

1

7.4

1 сезон

6.8

iTunes

7.2

1 сезон

13

6.7

1 сезон

8.3

RePack

30

Deluxe

pack

9.9

Лицензия

ВАЖНО

ИГРА 18+

pack

7.3

RePack

MK11

7.7

RePack

jed

7.8

RePack

fifa19

8.5

RePack

RDR2

RePack

NEED FOR SPEED™ PAYBACK

4 сезон

9 сезон

Бесстыжие 9 сезон

Все сериалы

все сериалы на PB.wtf

RePack

FAR CRY 5

Anonymous, добрый день, мы катастрофически не успеваем собрать деньги на оплату серверов, помогите нам пожалуйста 5,10,15р., для нас важна любая помощь . В качестве благодарности мы отключим Вам всю рекламу на сайте (укажите свой ник в строку Ваше имя)!

×
  
Magnet ссылка

Побег из Шоушенка / The Shawshank Redemption (Фрэнк Дарабонт) [1994, Драма, UHD BDRemux 2160p] DUB+8xMVO+3xDVO+10xAVO (rus, ukr) piratbit.org

Побег из Шоушенка через торрент piratbit.org

Раздают: 1 [ 0 KB/s ]
Размер: 84.17 GB | Добавлен: 9 д. назад | Торрент скачан:7 раз
Смотреть онлайн Побег из Шоушенка | Скачать    Ребята, помогите собрать деньги на оплату серверов!!!

15-09-2021 03:03 Побег из Шоушенка Скачать торрент  

Побег из Шоушенка | The Shawshank Redemption
Год выпуска: 1994
Страна: США
Студия: Castle Rock Entertainment
Жанр: Драма
Продолжительность: 02:22:33
Перевод: Дублированный, профессиональный многоголосый, профессиональный двухголосый, авторский
Субтитры: Русские, английские, украинские

Режиссер: Фрэнк Дарабонт

rating

В ролях: Тим Роббинс, Морган Фриман, Боб Гантон, Уильям Сэдлер, Клэнси Браун, Гил Беллоуз, Марк Ролстон, Джеймс Уитмор, Джеффри ДеМанн, Ларри Бранденбург

Описание: Бухгалтер Энди Дюфрейн обвинён в убийстве собственной жены и её любовника. Оказавшись в тюрьме под названием Шоушенк, он сталкивается с жестокостью и беззаконием, царящими по обе стороны решётки. Каждый, кто попадает в эти стены, становится их рабом до конца жизни. Но Энди, обладающий живым умом и доброй душой, находит подход как к заключённым, так и к охранникам, добиваясь их особого к себе расположения.

Качество: UHD BDRemux 2160p
Формат: MKV

Видео: 3840x2160 at 23.976 fps, MPEG-H HEVC HDR Video, ~ 49000 kbps avg
Аудио#1 Russian: 48 kHz, AC3, 2/0 (L,R) ch, ~192 kbps avg |Дубляж, Кириллица|
Аудио#2 Russian: 48 kHz/24-bit, DTS-HD MA 5.1, ~4016 kbps avg |Многоголосый закадровый, Cоюз Видео (Blu-Ray RUS)|
Аудио#3 Russian: 48 kHz/16-bit, DTS-HD MA 5.1, ~2143 kbps avg |Многоголосый закадровый, Киномания|
Аудио#4 Russian: 48 kHz/16-bit, DTS-HD MA 5.1, ~2160 kbps avg |Многоголосый закадровый, LDV|
Аудио#5 Russian: 48 kHz, AC3, 3/2 (L,C,R,l,r) + LFE ch ~384 kbps avg |Многоголосый закадровый, LDV|
Аудио#6 Russian: 48 kHz, AC3, 3/2 (L,C,R,l,r) + LFE ch, ~448 kbps avg |Многоголосый закадровый, Киномания|
Аудио#7 Russian: 48 kHz, AC3, 2/0 (L,R) ch, ~192 kbps avg |Многоголосый закадровый, ОРТ|
Аудио#8 Russian: 48 kHz, AC3, 2/0 (Dual Mono) ch, ~640 kbps avg |Многоголосый закадровый, СТС|
Аудио#9 Russian: 48 kHz, AC3, 2/0 (L,R) ch, ~256 kbps avg |Многоголосый закадровый, РТР/ТВЦ|
Аудио#10 Russian: 48 kHz/16-bit, DTS-HD MA 5.1, ~2162 kbps avg |Двухголосый закадровый, Videogram|
Аудио#11 Russian: 48 kHz, AC3, 3/2 (L,C,R,l,r) + LFE ch ~384 kbps avg |Двухголосый закадровый, Videogram|
Аудио#12 Russian: 48 kHz, AC3, 2/0 (L,R) ch, ~192 kbps avg |Двухголосый закадровый, НТВ|
Аудио#13 Russian: 48 kHz/16-bit, DTS-HD MA 5.1, ~2152 kbps avg |Одноголосый закадровый, А. Гаврилов|
Аудио#14 Russian: 48 kHz/16-bit, DTS-HD MA 5.1, ~2145 kbps avg |Одноголосый закадровый, Ю. Сербин (Перевод 2005 г.)|
Аудио#15 Russian: 48 kHz/16-bit, DTS-HD MA 5.1, ~2144 kbps avg |Одноголосый закадровый, Ю. Сербин|
Аудио#16 Russian: 48 kHz/16-bit, DTS-HD MA 5.1, ~2141 kbps avg |Одноголосый закадровый, Ю. Живов|
Аудио#17 Russian: 48 kHz/16-bit, DTS-HD MA 5.1, ~2141 kbps avg |Одноголосый закадровый, В. Горчаков|
Аудио#18 Russian: 48 kHz/16-bit, DTS-HD MA 5.1, ~2145 kbps avg |Одноголосый закадровый, С. Визгунов|
Аудио#19 Russian: 48 kHz/16-bit, DTS-HD MA 5.1, ~2147 kbps avg |Одноголосый закадровый, Е. Гаевский|
Аудио#20 Russian: 48 kHz/16-bit, DTS-HD MA 2.0, ~1785 kbps avg |Одноголосый закадровый, С. Визгунов (ранний)|
Аудио#21 Russian: 48 kHz, AC3, 2/0 (L,R) ch, ~192 kbps avg |Одноголосый закадровый, В. Дохалов|
Аудио#22 Russian: 48 kHz, AC3, 2/0 (L,R) ch, ~256 kbps avg |Одноголосый закадровый, А. Алексеев|
Аудио#23 Ukrainian: 48 kHz, AC3, 2/0 (L,R) ch, ~256 kbps avg |Многоголосый закадровый, ICTV|
Аудио#24 Ukrainian: 48 kHz, AC3, 2/0 (L,R) ch, ~192 kbps avg |Многоголосый закадровый, 1+1|
Аудио#25 Ukrainian: 48 kHz, AC3, 3/2 (L,C,R,l,r) + LFE ch ~384 kbps avg |Двухголосый закадровый, CТБ|
Аудио#26 English: 48 kHz/24-bit, DTS-HD MA 5.1, 4207 kbps avg
скриншот  скриншот  скриншот  

скриншот  скриншот  скриншот  

General
Unique ID : 167607419289283975094052179073902517615 (0x7E1803C8096E109FF683A12959C31D6F)
Complete name : E:VideoThe.Shawshank.Redemption.1994.BDREMUX.2160p.HDR.seleZen.mkv
Format : Matroska
Format version : Version 4
File size : 84.2 GiB
Duration : 2 h 22 min
Overall bit rate mode : Variable
Overall bit rate : 84.5 Mb/s
Movie name : The Shawshank Redemption (1994) 4K from seleZen
Encoded date : UTC 2021-09-13 13:19:56
Writing application : mkvmerge v59.0.0 ('Shining Star') 64-bit
Writing library : libebml v1.4.2 + libmatroska v1.6.4

Video
ID : 1
Format : HEVC
Format/Info : High Efficiency Video Coding
Format profile : Main 10@L5.1@High
HDR format : SMPTE ST 2086, HDR10 compatible
Codec ID : V_MPEGH/ISO/HEVC
Duration : 2 h 22 min
Bit rate : 49.0 Mb/s
Width : 3 840 pixels
Height : 2 160 pixels
Display aspect ratio : 16:9
Frame rate mode : Constant
Frame rate : 23.976 (24000/1001) FPS
Color space : YUV
Chroma subsampling : 4:2:0 (Type 2)
Bit depth : 10 bits
Bits/(Pixel*Frame) : 0.247
Stream size : 48.8 GiB (58%)
Language : English
Default : Yes
Forced : No
Color range : Limited
Color primaries : BT.2020
Transfer characteristics : PQ
Matrix coefficients : BT.2020 non-constant
Mastering display color pri : Display P3
Mastering display luminance : min: 0.0050 cd/m2, max: 4000 cd/m2
Maximum Content Light Level : 833 cd/m2
Maximum Frame-Average Light : 108 cd/m2

Audio #1
ID : 2
Format : AC-3
Format/Info : Audio Coding 3
Commercial name : Dolby Digital
Codec ID : A_AC3
Duration : 2 h 22 min
Bit rate mode : Constant
Bit rate : 192 kb/s
Channel(s) : 2 channels
Channel layout : L R
Sampling rate : 48.0 kHz
Frame rate : 31.250 FPS (1536 SPF)
Compression mode : Lossy
Delay relative to video : 24 ms
Stream size : 196 MiB (0%)
Title : Dub
Language : Russian
Service kind : Complete Main
Default : Yes
Forced : Yes

Audio #2
ID : 3
Format : DTS XLL
Format/Info : Digital Theater Systems
Commercial name : DTS-HD Master Audio
Codec ID : A_DTS
Duration : 2 h 22 min
Bit rate mode : Variable
Bit rate : 4 016 kb/s
Channel(s) : 6 channels
Channel layout : C L R Ls Rs LFE
Sampling rate : 48.0 kHz
Frame rate : 93.750 FPS (512 SPF)
Bit depth : 24 bits
Compression mode : Lossless
Delay relative to video : 2 ms
Stream size : 4.00 GiB (5%)
Title : MVO, Cоюз Видео (Blu-Ray RUS) (DTS-HD MA)
Language : Russian
Default : No
Forced : No

Audio #3
ID : 4
Format : DTS XLL
Format/Info : Digital Theater Systems
Commercial name : DTS-HD Master Audio
Codec ID : A_DTS
Duration : 2 h 22 min
Bit rate mode : Variable
Bit rate : 2 143 kb/s
Channel(s) : 6 channels
Channel layout : C L R Ls Rs LFE
Sampling rate : 48.0 kHz
Frame rate : 93.750 FPS (512 SPF)
Bit depth : 16 bits
Compression mode : Lossless
Delay relative to video : 2 ms
Stream size : 2.13 GiB (3%)
Title : MVO, Киномания (DTS-HD MA)
Language : Russian
Default : No
Forced : No

Audio #4
ID : 5
Format : DTS XLL
Format/Info : Digital Theater Systems
Commercial name : DTS-HD Master Audio
Codec ID : A_DTS
Duration : 2 h 22 min
Bit rate mode : Variable
Bit rate : 2 160 kb/s
Channel(s) : 6 channels
Channel layout : C L R Ls Rs LFE
Sampling rate : 48.0 kHz
Frame rate : 93.750 FPS (512 SPF)
Bit depth : 16 bits
Compression mode : Lossless
Delay relative to video : 2 ms
Stream size : 2.15 GiB (3%)
Title : MVO, LDV (DTS-HD MA)
Language : Russian
Default : No
Forced : No

Audio #5
ID : 6
Format : AC-3
Format/Info : Audio Coding 3
Commercial name : Dolby Digital
Codec ID : A_AC3
Duration : 2 h 22 min
Bit rate mode : Constant
Bit rate : 384 kb/s
Channel(s) : 6 channels
Channel layout : L R C LFE Ls Rs
Sampling rate : 48.0 kHz
Frame rate : 31.250 FPS (1536 SPF)
Compression mode : Lossy
Delay relative to video : 24 ms
Stream size : 391 MiB (0%)
Title : MVO, LDV (AC3)
Language : Russian
Service kind : Complete Main
Default : No
Forced : No

Audio #6
ID : 7
Format : AC-3
Format/Info : Audio Coding 3
Commercial name : Dolby Digital
Codec ID : A_AC3
Duration : 2 h 22 min
Bit rate mode : Constant
Bit rate : 448 kb/s
Channel(s) : 6 channels
Channel layout : L R C LFE Ls Rs
Sampling rate : 48.0 kHz
Frame rate : 31.250 FPS (1536 SPF)
Compression mode : Lossy
Delay relative to video : 24 ms
Stream size : 457 MiB (1%)
Title : MVO, Киномания (AC3)
Language : Russian
Service kind : Complete Main
Default : No
Forced : No

Audio #7
ID : 8
Format : AC-3
Format/Info : Audio Coding 3
Commercial name : Dolby Digital
Codec ID : A_AC3
Duration : 2 h 22 min
Bit rate mode : Constant
Bit rate : 192 kb/s
Channel(s) : 2 channels
Channel layout : L R
Sampling rate : 48.0 kHz
Frame rate : 31.250 FPS (1536 SPF)
Compression mode : Lossy
Delay relative to video : 24 ms
Stream size : 196 MiB (0%)
Title : MVO, ОРТ (AC3)
Language : Russian
Service kind : Complete Main
Default : No
Forced : No

Audio #8
ID : 9
Format : AC-3
Format/Info : Audio Coding 3
Commercial name : Dolby Digital
Codec ID : A_AC3
Duration : 2 h 22 min
Bit rate mode : Constant
Bit rate : 640 kb/s
Channel(s) : 2 channels
Channel layout : L R
Sampling rate : 48.0 kHz
Frame rate : 31.250 FPS (1536 SPF)
Compression mode : Lossy
Delay relative to video : 24 ms
Stream size : 652 MiB (1%)
Title : MVO, СТС (AC3)
Language : Russian
Service kind : Complete Main
Default : No
Forced : No

Audio #9
ID : 10
Format : AC-3
Format/Info : Audio Coding 3
Commercial name : Dolby Digital
Codec ID : A_AC3
Duration : 2 h 22 min
Bit rate mode : Constant
Bit rate : 256 kb/s
Channel(s) : 2 channels
Channel layout : L R
Sampling rate : 48.0 kHz
Frame rate : 31.250 FPS (1536 SPF)
Compression mode : Lossy
Delay relative to video : 24 ms
Stream size : 261 MiB (0%)
Title : MVO, РТР/ТВЦ (AC3)
Language : Russian
Service kind : Complete Main
Default : No
Forced : No

Audio #10
ID : 11
Format : DTS XLL
Format/Info : Digital Theater Systems
Commercial name : DTS-HD Master Audio
Codec ID : A_DTS
Duration : 2 h 22 min
Bit rate mode : Variable
Bit rate : 2 162 kb/s
Channel(s) : 6 channels
Channel layout : C L R Ls Rs LFE
Sampling rate : 48.0 kHz
Frame rate : 93.750 FPS (512 SPF)
Bit depth : 16 bits
Compression mode : Lossless
Delay relative to video : 2 ms
Stream size : 2.15 GiB (3%)
Title : DVO, Videogram (DTS-HD MA)
Language : Russian
Default : No
Forced : No

Audio #11
ID : 12
Format : AC-3
Format/Info : Audio Coding 3
Commercial name : Dolby Digital
Codec ID : A_AC3
Duration : 2 h 22 min
Bit rate mode : Constant
Bit rate : 384 kb/s
Channel(s) : 6 channels
Channel layout : L R C LFE Ls Rs
Sampling rate : 48.0 kHz
Frame rate : 31.250 FPS (1536 SPF)
Compression mode : Lossy
Delay relative to video : 24 ms
Stream size : 391 MiB (0%)
Title : DVO, Videogram (AC3)
Language : Russian
Service kind : Complete Main
Default : No
Forced : No

Audio #12
ID : 13
Format : AC-3
Format/Info : Audio Coding 3
Commercial name : Dolby Digital
Codec ID : A_AC3
Duration : 2 h 22 min
Bit rate mode : Constant
Bit rate : 192 kb/s
Channel(s) : 2 channels
Channel layout : L R
Sampling rate : 48.0 kHz
Frame rate : 31.250 FPS (1536 SPF)
Compression mode : Lossy
Delay relative to video : 24 ms
Stream size : 196 MiB (0%)
Title : DVO, НТВ (AC3)
Language : Russian
Service kind : Complete Main
Default : No
Forced : No

Audio #13
ID : 14
Format : DTS XLL
Format/Info : Digital Theater Systems
Commercial name : DTS-HD Master Audio
Codec ID : A_DTS
Duration : 2 h 22 min
Bit rate mode : Variable
Bit rate : 2 152 kb/s
Channel(s) : 6 channels
Channel layout : C L R Ls Rs LFE
Sampling rate : 48.0 kHz
Frame rate : 93.750 FPS (512 SPF)
Bit depth : 16 bits
Compression mode : Lossless
Delay relative to video : 2 ms
Stream size : 2.14 GiB (3%)
Title : AVO, А. Гаврилов (DTS-HD MA)
Language : Russian
Default : No
Forced : No

Audio #14
ID : 15
Format : DTS XLL
Format/Info : Digital Theater Systems
Commercial name : DTS-HD Master Audio
Codec ID : A_DTS
Duration : 2 h 22 min
Bit rate mode : Variable
Bit rate : 2 145 kb/s
Channel(s) : 6 channels
Channel layout : C L R Ls Rs LFE
Sampling rate : 48.0 kHz
Frame rate : 93.750 FPS (512 SPF)
Bit depth : 16 bits
Compression mode : Lossless
Delay relative to video : 2 ms
Stream size : 2.14 GiB (3%)
Title : AVO, Ю. Сербин (Перевод 2005 г.) (DTS-HD MA)
Language : Russian
Default : No
Forced : No

Audio #15
ID : 16
Format : DTS XLL
Format/Info : Digital Theater Systems
Commercial name : DTS-HD Master Audio
Codec ID : A_DTS
Duration : 2 h 22 min
Bit rate mode : Variable
Bit rate : 2 144 kb/s
Channel(s) : 6 channels
Channel layout : C L R Ls Rs LFE
Sampling rate : 48.0 kHz
Frame rate : 93.750 FPS (512 SPF)
Bit depth : 16 bits
Compression mode : Lossless
Delay relative to video : 2 ms
Stream size : 2.13 GiB (3%)
Title : AVO, Ю. Сербин (DTS-HD MA)
Language : Russian
Default : No
Forced : No

Audio #16
ID : 17
Format : DTS XLL
Format/Info : Digital Theater Systems
Commercial name : DTS-HD Master Audio
Codec ID : A_DTS
Duration : 2 h 22 min
Bit rate mode : Variable
Bit rate : 2 141 kb/s
Channel(s) : 6 channels
Channel layout : C L R Ls Rs LFE
Sampling rate : 48.0 kHz
Frame rate : 93.750 FPS (512 SPF)
Bit depth : 16 bits
Compression mode : Lossless
Delay relative to video : 2 ms
Stream size : 2.13 GiB (3%)
Title : AVO, Ю. Живов (DTS-HD MA)
Language : Russian
Default : No
Forced : No

Audio #17
ID : 18
Format : DTS XLL
Format/Info : Digital Theater Systems
Commercial name : DTS-HD Master Audio
Codec ID : A_DTS
Duration : 2 h 22 min
Bit rate mode : Variable
Bit rate : 2 141 kb/s
Channel(s) : 6 channels
Channel layout : C L R Ls Rs LFE
Sampling rate : 48.0 kHz
Frame rate : 93.750 FPS (512 SPF)
Bit depth : 16 bits
Compression mode : Lossless
Delay relative to video : 2 ms
Stream size : 2.13 GiB (3%)
Title : AVO, В. Горчаков (DTS-HD MA)
Language : Russian
Default : No
Forced : No

Audio #18
ID : 19
Format : DTS XLL
Format/Info : Digital Theater Systems
Commercial name : DTS-HD Master Audio
Codec ID : A_DTS
Duration : 2 h 22 min
Bit rate mode : Variable
Bit rate : 2 145 kb/s
Channel(s) : 6 channels
Channel layout : C L R Ls Rs LFE
Sampling rate : 48.0 kHz
Frame rate : 93.750 FPS (512 SPF)
Bit depth : 16 bits
Compression mode : Lossless
Delay relative to video : 2 ms
Stream size : 2.14 GiB (3%)
Title : AVO, С. Визгунов (DTS-HD MA)
Language : Russian
Default : No
Forced : No

Audio #19
ID : 20
Format : DTS XLL
Format/Info : Digital Theater Systems
Commercial name : DTS-HD Master Audio
Codec ID : A_DTS
Duration : 2 h 22 min
Bit rate mode : Variable
Bit rate : 2 147 kb/s
Channel(s) : 6 channels
Channel layout : C L R Ls Rs LFE
Sampling rate : 48.0 kHz
Frame rate : 93.750 FPS (512 SPF)
Bit depth : 16 bits
Compression mode : Lossless
Delay relative to video : 2 ms
Stream size : 2.14 GiB (3%)
Title : AVO, Е. Гаевский (DTS-HD MA)
Language : Russian
Default : No
Forced : No

Audio #20
ID : 21
Format : DTS XLL
Format/Info : Digital Theater Systems
Commercial name : DTS-HD Master Audio
Codec ID : A_DTS
Duration : 2 h 22 min
Bit rate mode : Variable
Bit rate : 1 785 kb/s
Channel(s) : 2 channels
Channel layout : L R
Sampling rate : 48.0 kHz
Frame rate : 93.750 FPS (512 SPF)
Bit depth : 16 bits
Compression mode : Lossless
Delay relative to video : 2 ms
Stream size : 1.78 GiB (2%)
Title : AVO, С. Визгунов (ранний) (DTS-HD MA)
Language : Russian
Default : No
Forced : No

Audio #21
ID : 22
Format : AC-3
Format/Info : Audio Coding 3
Commercial name : Dolby Digital
Codec ID : A_AC3
Duration : 2 h 22 min
Bit rate mode : Constant
Bit rate : 192 kb/s
Channel(s) : 2 channels
Channel layout : L R
Sampling rate : 48.0 kHz
Frame rate : 31.250 FPS (1536 SPF)
Compression mode : Lossy
Delay relative to video : 24 ms
Stream size : 196 MiB (0%)
Title : AVO, В. Дохалов (AC3)
Language : Russian
Service kind : Complete Main
Default : No
Forced : No

Audio #22
ID : 23
Format : AC-3
Format/Info : Audio Coding 3
Commercial name : Dolby Digital
Codec ID : A_AC3
Duration : 2 h 22 min
Bit rate mode : Constant
Bit rate : 256 kb/s
Channel(s) : 2 channels
Channel layout : L R
Sampling rate : 44.1 kHz
Frame rate : 28.711 FPS (1536 SPF)
Compression mode : Lossy
Delay relative to video : 10 ms
Stream size : 261 MiB (0%)
Title : AVO, А. Алексеев (AC3)
Language : Russian
Service kind : Complete Main
Default : No
Forced : No

Audio #23
ID : 24
Format : AC-3
Format/Info : Audio Coding 3
Commercial name : Dolby Digital
Codec ID : A_AC3
Duration : 2 h 22 min
Bit rate mode : Constant
Bit rate : 256 kb/s
Channel(s) : 2 channels
Channel layout : L R
Sampling rate : 48.0 kHz
Frame rate : 31.250 FPS (1536 SPF)
Compression mode : Lossy
Delay relative to video : 24 ms
Stream size : 261 MiB (0%)
Title : MVO, ICTV (AC3)
Language : Ukrainian
Service kind : Complete Main
Default : No
Forced : No

Audio #24
ID : 25
Format : AC-3
Format/Info : Audio Coding 3
Commercial name : Dolby Digital
Codec ID : A_AC3
Duration : 2 h 22 min
Bit rate mode : Constant
Bit rate : 192 kb/s
Channel(s) : 2 channels
Channel layout : L R
Sampling rate : 48.0 kHz
Frame rate : 31.250 FPS (1536 SPF)
Compression mode : Lossy
Delay relative to video : 24 ms
Stream size : 196 MiB (0%)
Title : MVO, 1+1 (AC3)
Language : Ukrainian
Service kind : Complete Main
Default : No
Forced : No

Audio #25
ID : 26
Format : AC-3
Format/Info : Audio Coding 3
Commercial name : Dolby Digital
Codec ID : A_AC3
Duration : 2 h 22 min
Bit rate mode : Constant
Bit rate : 384 kb/s
Channel(s) : 6 channels
Channel layout : L R C LFE Ls Rs
Sampling rate : 48.0 kHz
Frame rate : 31.250 FPS (1536 SPF)
Compression mode : Lossy
Delay relative to video : 24 ms
Stream size : 391 MiB (0%)
Title : DVO, CТБ (AC3)
Language : Ukrainian
Service kind : Complete Main
Default : No
Forced : No

Audio #26
ID : 27
Format : DTS XLL
Format/Info : Digital Theater Systems
Commercial name : DTS-HD Master Audio
Codec ID : A_DTS
Duration : 2 h 22 min
Bit rate mode : Variable
Bit rate : 4 207 kb/s
Channel(s) : 6 channels
Channel layout : C L R Ls Rs LFE
Sampling rate : 48.0 kHz
Frame rate : 93.750 FPS (512 SPF)
Bit depth : 24 bits
Compression mode : Lossless
Stream size : 4.19 GiB (5%)
Title : Original
Language : English
Default : No
Forced : No

Text #1
ID : 28
Format : UTF-8
Codec ID : S_TEXT/UTF8
Codec ID/Info : UTF-8 Plain Text
Duration : 2 h 17 min
Bit rate : 87 b/s
Count of elements : 1373
Stream size : 88.7 KiB (0%)
Title : Full
Language : Russian
Default : No
Forced : No

Text #2
ID : 29
Format : UTF-8
Codec ID : S_TEXT/UTF8
Codec ID/Info : UTF-8 Plain Text
Duration : 2 h 16 min
Bit rate : 89 b/s
Count of elements : 1248
Stream size : 89.3 KiB (0%)
Title : Full
Language : Ukrainian
Default : No
Forced : No

Text #3
ID : 30
Format : UTF-8
Codec ID : S_TEXT/UTF8
Codec ID/Info : UTF-8 Plain Text
Duration : 2 h 15 min
Bit rate : 59 b/s
Count of elements : 1717
Stream size : 59.6 KiB (0%)
Title : Full
Language : English
Default : No
Forced : No

Menu
00:00:00.000 : Chapter 01
00:04:40.155 : Chapter 02
00:06:38.732 : Chapter 03
00:10:07.357 : Chapter 04
00:13:46.117 : Chapter 05
00:17:59.954 : Chapter 06
00:23:43.297 : Chapter 07
00:29:01.114 : Chapter 08
00:33:32.886 : Chapter 09
00:38:50.954 : Chapter 10
00:41:06.297 : Chapter 11
00:42:40.683 : Chapter 12
00:46:14.438 : Chapter 13
00:48:14.475 : Chapter 14
00:51:21.578 : Chapter 15
00:57:19.144 : Chapter 16
01:00:27.499 : Chapter 17
01:05:45.859 : Chapter 18
01:07:16.699 : Chapter 19
01:11:03.718 : Chapter 20
01:13:53.262 : Chapter 21
01:15:55.593 : Chapter 22
01:21:08.280 : Chapter 23
01:23:58.992 : Chapter 24
01:29:26.319 : Chapter 25
01:32:10.525 : Chapter 26
01:35:37.190 : Chapter 27
01:38:28.611 : Chapter 28
01:40:38.407 : Chapter 29
01:47:23.187 : Chapter 30
01:50:45.430 : Chapter 31
01:54:31.156 : Chapter 32
02:00:35.562 : Chapter 33
02:04:09.359 : Chapter 34
02:05:51.127 : Chapter 35
02:08:25.865 : Chapter 36
02:10:13.556 : Chapter 37
02:12:56.177 : Chapter 38
02:16:27.763 : Chapter 39
02:18:07.613 : Chapter 40

piratbit.org



Скачать Побег из Шоушенка через торрент https://a.radikal.ru/a10/2109/71/9c463742c0cf.jpg Скачать, смотреть онлайн Побег из Шоушенка бесплантно в хорошем качестве Описание: Бухгалтер Энди Дюфрейн обвинён в убийстве собственной жены и её любовника. Оказавшись в тюрьме под названием Шоушенк, он ... 10 10 2
Торрент: Зарегистрирован [2021-09-15 03:03] · скачан: 7 раз
Статус: √ проверено
Размер: 84.17 GB
Как cкачать? Как скачать Побег из Шоушенка через торрент | UTorrent

% Раздел Тема Автор DL S | L
Фильмы до 2000 г. [ 886 MB ] Побег из Шоушенка / The Shawshank Redemption [1994 HDRip by _Один_777] MVO Один 777 Скачать
1 | 0
Фильмы до 2000 г. [ 1.46 GB ] Побег из Шоушенка / The Shawshank Redemption [1994 BDRip] killermax2013 Скачать
1 | 0
Фильмы [HD 720p, 1080p] (Хороший звук DUB, MVO) [ 29.31 GB ] Побег из Шоушенка / The Shawshank Redemption [1994 BDRip 1080p ] MVO + DVO + AVO + Original den7z8 Скачать
1 | 0
Фильмы [HD 720p, 1080p] (Хороший звук DUB, MVO) [ 13.93 GB ] Побег из Шоушенка / The Shawshank Redemption [1994 BDRip 1080p] smaster Скачать
1 | 0
Фильмы (BDRip, HDrip-AVC) (48-60 fps) [ 3.89 GB ] Побег из Шоушенка / The Shawshank Redemption [1994 BDRip-AVC / 60fps MVO] от R.G. HD-Films Ressident Скачать
2 | 0
Фильмы (Blu-ray, BD-Remux, HDDVD) [ 38.83 GB ] Побег из Шоушенка / The Shawshank Redemption [1994 BD-Remux 1080p] 4xMVO + 2xDVO + 6xAVO + Ukr + Original Артронах Скачать
1 | 0
Фильмы до 2000 г. [ 3.35 GB ] Побег из Шоушенка / Shawshank Redemption The [1994 BDRip] feldeger Скачать
1 | 0

28-11-2019 20:33  

Отключить всю рекламу на сайте

    Дорогой пользователь! Огромная просьба, поблагодарите релизера, оцените раздачу и оставьте свои комментарий, если Вы скачали Побег из Шоушенка через торрент бесплатно!
    Комментировать посты могут только пользователи прошедшие не сложную регистрацию
    Показать сообщения:    

    Побег из Шоушенка через торрент
    Скачать бесплатно Побег из Шоушенка
    Побег из Шоушенка скачать торрент
    Побег из Шоушенка смотреть онлайн
    Cкачать фильм Побег из Шоушенка бесплатно
    Побег из Шоушенка скачать торрент в хорошем качестве
    Побег из Шоушенка смотреть онлайн бесплатно в хорошем качестве


    Вы не можете начинать темы
    Вы не можете отвечать на сообщения
    Вы не можете редактировать свои сообщения
    Вы не можете удалять свои сообщения
    Вы не можете голосовать в опросах
    Вы не можете прикреплять файлы к сообщениям
    Вы можете скачивать файлы