Anonymous, добрый день, присоединяйтесь к нам в Telegram!, здесь всегда актуальный адрес сайта, оперативная поддержка и многое другое!

>

5.6

iTunes

7.4

iTunes

5.7

MVO

1

7.7

1 сезон

6.8

iTunes

7.3

1 сезон

13

6.7

1 сезон

8.3

RePack

30

ULTIMATE

pack

9.9

Лицензия

ВАЖНО

ИГРА 18+

pack

7.3

RePack

MK11

7.7

RePack

jed

7.8

RePack

fifa19

8.5

RePack

RDR2

RePack

NEED FOR SPEED™ PAYBACK

4 сезон

9 сезон

Бесстыжие 9 сезон

Все сериалы

все сериалы на PB.wtf

RePack

FAR CRY 5

Anonymous, добрый день, мы катастрофически не успеваем собрать деньги на оплату серверов, помогите нам пожалуйста 5,10,15р., для нас важна любая помощь . В качестве благодарности мы отключим Вам всю рекламу на сайте (укажите свой ник в строку Ваше имя)!

×
  
Magnet ссылка

Проект «Анна Николаевна» / Сезон: 2 / Серии: 1-6 из 8 (Максим Пежемский, Александр Карпиловский) [2021, Комедия, фантастика, драма, WEBRip, (Версия 18+)] piratbit.org

Проект «Анна Николаевна» через торрент piratbit.org

Раздают: 17 [ 579 KB/s ] Качают: 3 [ 0 KB/s ]
Размер: 5.05 GB | Добавлен: 3 д. назад | Торрент скачан:18 раз
Смотреть онлайн Проект «Анна Николаевна» | Скачать    Ребята, помогите собрать деньги на оплату серверов!!!

15-09-2021 22:34 Проект «Анна Николаевна» Скачать торрент  

Проект «Анна Николаевна»
Год выпуска: 2021
Страна: Россия
Выпущено: КиноПоиск HD, Продюсерская компания «Среда»
Жанр: Комедия, фантастика, драма
Продолжительность: ~ 00:39:00
Субтитры: Русские
Версия 18+.

Режиссер: Максим Пежемский, Александр Карпиловский

rating

В ролях: Зоя Бербер, Антон Филипенко, Сергей Гармаш, Кузьма Сапрыкин, Фёдор Лавров, Маруся Климова, Антон Васильев, Никита Тарасов, Анна Котова, Ирина Розанова

Описание: Продолжение народной сай-фай комедии о приключениях идеальной во всех отношениях женщины-андроида на службе в российской полиции. В новом сезоне команду подполковника Галузо за хорошую работу переведут в Москву, а в качестве гида по большому городу к ним прикрепят ту самую Анну Николаевну Королькевич, с которой проектировали полицейского-андроида. Следователи Мокрый и Ляпин будут бороться с преступностью и московским ханжеством, а выживший после драматичных событий в финале первого сезона майор Пожарский обнаружит себя в любовном четырехугольнике.

Качество: WEBRip
Формат: AVI

Видео: 720x304 (2.37:1), 25 fps, XviD ~1650 kbps avg, 0.301 bit/pixel
Аудио #01: Русский, AC3, 6 ch, 448 kbps, 16 bits, 48.0 KHz | C цензурой
Аудио #02: Русский, AC3, 6 ch, 448 kbps, 16 bits, 48.0 KHz | без цензуры, 18+
скриншот  скриншот  скриншот  скриншот  скриншот  

скриншот  скриншот  скриншот  скриншот  скриншот  

General
Complete name : D:\Proekt.Anna.Nikolaevna.s02.WEB-DLRip.25Kuzmich\Proekt.Anna.Nikolaevna.s02e01.WEB-DLRip.25Kuzmich.avi
Format : AVI
Format/Info : Audio Video Interleave
File size : 714 MiB
Duration : 38 min 58 s
Overall bit rate : 2 560 kb/s
Writing application : VirtualDubMod 1.5.10.3 (build 2550/release)
Writing library : VirtualDubMod build 2550/release

Video
ID : 0
Format : MPEG-4 Visual
Format profile : Advanced Simple@L5
Format settings : BVOP1
Format settings, BVOP : 1
Format settings, QPel : No
Format settings, GMC : No warppoints
Format settings, Matrix : Default (MPEG)
Codec ID : XVID
Codec ID/Hint : XviD
Duration : 38 min 58 s
Bit rate : 1 650 kb/s
Width : 720 pixels
Height : 304 pixels
Display aspect ratio : 2.35:1
Frame rate : 25.000 FPS
Color space : YUV
Chroma subsampling : 4:2:0
Bit depth : 8 bits
Scan type : Progressive
Compression mode : Lossy
Bits/(Pixel*Frame) : 0.301
Stream size : 460 MiB (64%)
Writing library : XviD 73

Audio #1
ID : 1
Format : AC-3
Format/Info : Audio Coding 3
Codec ID : 2000
Duration : 38 min 58 s
Bit rate mode : Constant
Bit rate : 448 kb/s
Channel(s) : 6 channels
Channel positions : Front: L C R, Side: L R, LFE
Sampling rate : 48.0 kHz
Frame rate : 31.250 FPS (1536 SPF)
Bit depth : 16 bits
Compression mode : Lossy
Stream size : 125 MiB (17%)
Alignment : Split accross interleaves
Interleave, duration : 40 ms (1.00 video frame)
Interleave, preload duratio : 500 ms
Service kind : Complete Main

Audio #2
ID : 2
Format : AC-3
Format/Info : Audio Coding 3
Codec ID : 2000
Duration : 38 min 58 s
Bit rate mode : Constant
Bit rate : 448 kb/s
Channel(s) : 6 channels
Channel positions : Front: L C R, Side: L R, LFE
Sampling rate : 48.0 kHz
Frame rate : 31.250 FPS (1536 SPF)
Bit depth : 16 bits
Compression mode : Lossy
Stream size : 125 MiB (17%)
Alignment : Split accross interleaves
Interleave, duration : 40 ms (1.00 video frame)
Interleave, preload duratio : 500 ms
Service kind : Complete Main

Раздача ведётся путём добавления новых серий, при каждом добавлении создаётся новый торрент. Чтобы начать докачку новой серии, пользователям необходимо сделать следующее:

- Остановить скачивание.
- Удалить старый торрент у себя из клиента (старые серии удалять не надо).
- Скачать новый торрент и запустить его у себя в клиенте вместо старого, при этом указать клиенту путь в старую папку куда и должно происходить скачивание новых серий.

Ваш клиент при этом должен произвести хеширование (проверку) старой папки (если не производит сам - помогите ему сделать это), и будет докачивать только те серии которых у вас ещё нет. Старые серии при этом не удаляются, а продолжают раздаваться!
Если вы уже удалили старые серии, то предотвратить повторную закачку старых серий можно, отжав галочку в соответствующих местах при запуске нового торрента. По возможности, желательно не удалять старые серии как можно дольше, чтобы релизер не столько продолжал раздавать старые серии, а смог сконцентрироваться на новых.
piratbit.org



Скачать Проект «Анна Николаевна» через торрент https://i115.fastpic.org/big/2021/0916/13/7ee30d7f275c56de266f0129ab79ee13.jpg Скачать, смотреть онлайн Проект «Анна Николаевна» бесплантно в хорошем качестве Описание: Продолжение народной сай-фай комедии о приключениях идеальной во всех отношениях женщины-андроида на службе в российской полиции. ... 9.2 10 22
Торрент: Зарегистрирован [2021-10-13 22:40] · скачан: 18 раз
Статус: √ проверено
Размер: 5.05 GB
Как cкачать? Как скачать Проект «Анна Николаевна» через торрент | UTorrent

% Раздел Тема Автор DL S | L
Наши сериалы [ 13.86 GB ] Проект «Анна Николаевна» / Сезон: 2 / Серии: 1-6 из 8 [2021 WEBRip 1080p ] bober100 Скачать
9 | 7
Наши сериалы [ 9.84 GB ] Проект «Анна Николаевна» / Сезон: 2 / Серии: 1-6 из 8 [2021 WEBRip 720p ] bober100 Скачать
6 | 2
Наши сериалы [ 25.23 GB ] Проект «Анна Николаевна» / Сезон: 2 / Серии: 1-6 из 8 [2021 WEBRip 2160p ] bober100 Скачать
4 | 2
Зарубежные сериалы [ 6.43 GB ] Проект «Анна Николаевна» / Сезон: 2 / Серии: 1-6 из 8 [2021 WEBRip-AVC ] bober100 Скачать
6 | 6

28-11-2019 20:33  

Отключить всю рекламу на сайте

    Дорогой пользователь! Огромная просьба, поблагодарите релизера, оцените раздачу и оставьте свои комментарий, если Вы скачали Проект «Анна Николаевна» через торрент бесплатно!
    Комментировать посты могут только пользователи прошедшие не сложную регистрацию
    Показать сообщения:    

    Проект «Анна Николаевна» через торрент
    Скачать бесплатно Проект «Анна Николаевна»
    Проект «Анна Николаевна» скачать торрент
    Проект «Анна Николаевна» смотреть онлайн
    Cкачать фильм Проект «Анна Николаевна» бесплатно
    Проект «Анна Николаевна» скачать торрент в хорошем качестве
    Проект «Анна Николаевна» смотреть онлайн бесплатно в хорошем качестве


    Вы не можете начинать темы
    Вы не можете отвечать на сообщения
    Вы не можете редактировать свои сообщения
    Вы не можете удалять свои сообщения
    Вы не можете голосовать в опросах
    Вы не можете прикреплять файлы к сообщениям
    Вы можете скачивать файлы