Anonymous, доброй ночи, присоединяйтесь к нам в Telegram!, здесь всегда актуальный адрес сайта, оперативная поддержка и многое другое!

>

5.6

iTunes

7.4

iTunes

5.7

MVO

1

7.7

1 сезон

6.8

iTunes

7.3

1 сезон

13

6.7

1 сезон

8.3

RePack

30

ULTIMATE

pack

9.9

Лицензия

ВАЖНО

ИГРА 18+

pack

7.3

RePack

MK11

7.7

RePack

jed

7.8

RePack

fifa19

8.5

RePack

RDR2

RePack

NEED FOR SPEED™ PAYBACK

4 сезон

9 сезон

Бесстыжие 9 сезон

Все сериалы

все сериалы на PB.wtf

RePack

FAR CRY 5

Anonymous, доброй ночи, мы катастрофически не успеваем собрать деньги на оплату серверов, помогите нам пожалуйста 5,10,15р., для нас важна любая помощь . В качестве благодарности мы отключим Вам всю рекламу на сайте (укажите свой ник в строку Ваше имя)!

×
  
Magnet ссылка

Пончары. Глобальное закругление / Extinct (Дэвид Силверман, Рэймонд С. Перси) [2021, Мультфильм, приключения, комедия, WEBRip 1080p] DUB [iTunes] piratbit.org

Пончары. Глобальное закругление через торрент piratbit.org

Раздают: 17 [ 0 KB/s ]
Размер: 2.49 GB | Добавлен: 1 мес. назад | Торрент скачан:248 раз
Смотреть онлайн Пончары. Глобальное закругление | Скачать    Ребята, помогите собрать деньги на оплату серверов!!!

16-09-2021 09:29 Пончары. Глобальное закругление Скачать торрент  

Пончары. Глобальное закругление | Extinct
Год выпуска: 2021
Страна: США, Канада, Китай
Выпущено: China Lion Entertainment Production, Cinesite Animation, HB Wink Animation
Жанр: Мультфильм, приключения, комедия
Продолжительность: 01:20:57
Перевод: Дублированный | iTunes
Субтитры: отсутствуют

Режиссер: Дэвид Силверман, Рэймонд С. Перси

rating

В ролях: Адам Дивайн, Рэйчел Блум, Кен Жонг, Зази Битц, Джим Джефферис, Кэтрин О Хара, Регги Уоттс, Алекс Борштейн, Джулия Чан, Стив Аоки

Описание: Пончары – милые, уморительные создания. Круглые как пончики и пушистые как хомячки. Но когда двух из них вдруг затягивает петля времени, выясняется, что в будущем пончары – музейные экспонаты наряду с динозаврами. Нужно срочно изменить ход истории и для этого они прокатятся по всем эпохам. Им всё в новинку и всё нипочём: хоть пещерные люди, хоть квадрокоптеры… А значит, впереди округлительные приключения!

Качество: WEBRip 1080p
Формат: MKV

Видео: MPEG-4 AVC, 3764 Кбит/сек, 1920x1040
Аудио #1: AC3, 6 ch, 384 Кбит/с | RUS |
Аудио #2: E-AC3, 6 ch, 256 Кбит/с | ENG |
скриншот  скриншот  скриншот  скриншот  

Общее
Уникальный идентификатор : 168637949699896009675691752679958333475 (0x7EDE7CDA7A5EA69D4983B6CF21A34823)
Полное имя : E:TorrentsExtinct.2021.1080p.WEBRip.mkv
Формат : Matroska
Версия формата : Version 4
Размер файла : 2,49 Гбайт
Продолжительность : 1 ч. 20 м.
Общий поток : 4 406 Кбит/сек
Название фильма : Extinct.2021.1080p.WEBRip
Дата кодирования : UTC 2021-09-16 09:16:54
Программа кодирования : mkvmerge v59.0.0 ('Shining Star') 64-bit
Библиотека кодирования : libebml v1.4.2 + libmatroska v1.6.4

Видео
Идентификатор : 1
Формат : AVC
Формат/Информация : Advanced Video Codec
Профиль формата : High@L5.1
Настройки формата : CABAC / 2 Ref Frames
Параметр CABAC формата : Да
Параметр RefFrames формата : 2 кадра
Идентификатор кодека : V_MPEG4/ISO/AVC
Продолжительность : 1 ч. 20 м.
Битрейт : 3 764 Кбит/сек
Ширина : 1 920 пикселей
Высота : 1 040 пикселей
Соотношение сторон : 1,85:1
Режим частоты кадров : Постоянный
Частота кадров : 25,000 кадров/сек
Цветовое пространство : YUV
Субдискретизация насыщенности : 4:2:0
Битовая глубина : 8 бит
Тип развёртки : Прогрессивная
Бит/(Пиксели*Кадры) : 0.075
Размер потока : 2,13 Гбайт (85%)
Default : Да
Forced : Нет

Аудио #1
Идентификатор : 2
Формат : AC-3
Формат/Информация : Audio Coding 3
Коммерческое название : Dolby Digital
Идентификатор кодека : A_AC3
Продолжительность : 1 ч. 20 м.
Вид битрейта : Постоянный
Битрейт : 384 Кбит/сек
Каналы : 6 каналов
Channel layout : L R C LFE Ls Rs
Частота : 48,0 КГц
Частота кадров : 31,250 кадров/сек (1536 SPF)
Метод сжатия : С потерями
Размер потока : 222 Мбайт (9%)
Заголовок : iTunes
Язык : Russian
Service kind : Complete Main
Default : Да
Forced : Нет

Аудио #2
Идентификатор : 3
Формат : E-AC-3
Формат/Информация : Enhanced AC-3
Коммерческое название : Dolby Digital Plus
Идентификатор кодека : A_EAC3
Продолжительность : 1 ч. 20 м.
Вид битрейта : Постоянный
Битрейт : 256 Кбит/сек
Каналы : 6 каналов
Channel layout : L R C LFE Ls Rs
Частота : 48,0 КГц
Частота кадров : 31,250 кадров/сек (1536 SPF)
Метод сжатия : С потерями
Размер потока : 148 Мбайт (6%)
Язык : English
Service kind : Complete Main
Default : Нет
Forced : Нет

piratbit.org



Скачать Пончары. Глобальное закругление через торрент https://b.radikal.ru/b20/2109/ae/ae68f342bb5a.jpg Скачать, смотреть онлайн Пончары. Глобальное закругление бесплантно в хорошем качестве Описание: Пончары – милые, уморительные создания. Круглые как пончики и пушистые как хомячки. Но когда двух из них вдруг затягивает петля ... 10 10 10
Торрент: Зарегистрирован [2021-09-16 09:29] · скачан: 248 раз
Статус: √ проверено
Размер: 2.49 GB
Как cкачать? Как скачать Пончары. Глобальное закругление через торрент | UTorrent

28-11-2019 20:33  

Отключить всю рекламу на сайте

    Дорогой пользователь! Огромная просьба, поблагодарите релизера, оцените раздачу и оставьте свои комментарий, если Вы скачали Пончары. Глобальное закругление через торрент бесплатно!
    Комментировать посты могут только пользователи прошедшие не сложную регистрацию
    Показать сообщения:    

    Пончары. Глобальное закругление через торрент
    Скачать бесплатно Пончары. Глобальное закругление
    Пончары. Глобальное закругление скачать торрент
    Пончары. Глобальное закругление смотреть онлайн
    Cкачать фильм Пончары. Глобальное закругление бесплатно
    Пончары. Глобальное закругление скачать торрент в хорошем качестве
    Пончары. Глобальное закругление смотреть онлайн бесплатно в хорошем качестве


    Вы не можете начинать темы
    Вы не можете отвечать на сообщения
    Вы не можете редактировать свои сообщения
    Вы не можете удалять свои сообщения
    Вы не можете голосовать в опросах
    Вы не можете прикреплять файлы к сообщениям
    Вы можете скачивать файлы