Присоединяйтесь к нам в Telegram!, здесь всегда актуальный адрес сайта, оперативная поддержка и многое другое!!

>

5.9

iTunes

7.4

iTunes

9.4

1 сезон

1

7.4

2 сезон

7.2

iTunes

7.3

1 сезон

13

6.1

iTunes

8.3

Пиратка

30

ULTIMATE

pack

9.9

Лицензия

ВАЖНО

ИГРА 18+

pack

7.3

RePack

MK11

7.7

RePack

jed

7.8

RePack

fifa19

8.5

RePack

RDR2

RePack

NEED FOR SPEED™ PAYBACK

5 сезон

9 сезон

Бесстыжие 9 сезон

Все сериалы

все сериалы на PB.wtf

RePack

FAR CRY 5

Anonymous, доброй ночи, мы катастрофически не успеваем собрать деньги на оплату серверов, помогите нам пожалуйста 5,10,15р., для нас важна любая помощь . В качестве благодарности мы отключим Вам всю рекламу на сайте (укажите свой ник в строку Ваше имя)!

×
  
Magnet ссылка

День, когда Земля остановилась / The Day the Earth Stood Still (Скотт Дерриксон) [2008 г., Фантастика, триллер, драма, BDRip 720p / 60 FPS, Дубляж] piratbit.org

День, когда Земля остановилась через торрент piratbit.org

Раздают: 5 [ 0 KB/s ]
Размер: 2.74 GB | Добавлен: 10 д. назад | Торрент скачан:65 раз
Смотреть онлайн День, когда Земля остановилась | Скачать    Ребята, помогите собрать деньги на оплату серверов!!!

20-09-2021 12:15 День, когда Земля остановилась Скачать торрент  

День когда Земля остановилась / The Day the Earth Stood Still
Год выпуска: 2008
Страна: США
Жанр: Фантастика, триллер, драма
Продолжительность: 01:43:35
Перевод: Дубляж
Субтитры: русские, английские

Режиссер: Скотт Дерриксон

Бюджет: $80 000 000
Премьера в мире: 10 декабря 2008

rating

В ролях: Киану Ривз, Дженнифер Коннелли, Кэти Бэйтс, Джейден Смит, Джон Клиз, Джон Хэмм, Кайл Чандлер, Роберт Неппер, Джеймс Хонг, Джон Ротмен, Сунита Прасад, Хуан Ридингер, Сэм Гилрой, Таня Чэмпокс, Рукия Бернард, Алисен Даун, Дэвид Льюис, Ллойд Адамс, Муса Крэйиш, Дж.С. МакКензи, Курт Макс Ранте, Дэниэл Бэйкон, Ричард Китс, Билл Монди, Джудит Макси, Риз Александр, Серж Уд, Лорена Гэйл, Стефани Сэмюэлс, Ричард Тиллман, Камиль Атебе, Томас Брэдшоу, Тэренс Даминт, Патрик Сабонгуй, Джейкоб Блэр, Шэйн Джонс, Джейк МакЛафлин, Джордж Шарпе

Описание: Сюжет повествует о том, как Вашингтон становится невольным приемным домом, куда прибывает инопланетный посланник Клаату и его огромный робот Горт. Они представляют собой делегацию от федерации планет, собранную с целью поставить населению Земли ультиматум: земляне должны прекратить уничтожать свою планету. Но донести это послание до обезумевших от паники и эгоизма американцев оказывается не так просто, как казалось изначально. Клаату сбегает из военного госпиталя и решает исследовать планету самостоятельно.

Качество: BDRip 720p / 60 FPS
Формат: MKV
Видео кодек: H.264
Аудио кодек: AC3
Видео: 1280x544 (2,35:1), 3 793 kbps, 59,940 fps, 0.090 bpp
Аудио#1: AAC LC / 48 kHz / 76,0 kbps / 2 ch/ Дубляж
скриншот   скриншот   скриншот   скриншот   скриншот   скриншот  

Общее
Уникальный идентификатор : 293744591108520207831489488951865039135 (0xDCFD2680BAF4646448C4D651C260D91F)
Полное имя : Z:\Раздача\День когда Земля остановилась.2008.BDRip.720p.(60Fps).mkv
Формат : Matroska
Версия формата : Version 4
Размер файла : 2,74 Гбайт
Продолжительность : 1 ч. 43 м.
Общий поток : 3 793 Кбит/сек
Название фильма : День когда Земля остановилась.2008.BDRip.720p.(60Fps).mkv
Дата кодирования : UTC 2020-09-01 08:58:52
Программа кодирования : mkvmerge v48.0.0 ('Fortress Around Your Heart') 64-bit
Библиотека кодирования : libebml v1.4.0 + libmatroska v1.6.0
Attachments : poster (2).jpg

Видео
Идентификатор : 1
Формат : AVC
Формат/Информация : Advanced Video Codec
Профиль формата : High@L4.1
Настройки формата : CABAC / 8 Ref Frames
Параметр CABAC формата : Да
Параметр RefFrames формата : 8 кадров
Идентификатор кодека : V_MPEG4/ISO/AVC
Продолжительность : 1 ч. 43 м.
Битрейт : 3 793 Кбит/сек
Ширина : 1 280 пикселей
Высота : 544 пикселя
Соотношение сторон : 2,35:1
Режим частоты кадров : Постоянный
Частота кадров : 59,940 кадров/сек
Цветовое пространство : YUV
Субдискретизация насыщенности : 4:2:0
Битовая глубина : 8 бит
Тип развёртки : Прогрессивная
Бит/(Пиксели*Кадры) : 0.090
Размер потока : 2,69 Гбайт (98%)
Библиотека кодирования : x264 core 146 r2538 121396c
Настройки программы : cabac=1 / ref=8 / deblock=1:0:0 / analyse=0x3:0x113 / me=umh / subme=9 / psy=1 / psy_rd=1.00:0.10 / mixed_ref=1 / me_range=32 / chroma_me=1 / trellis=2 / 8x8dct=1 / cqm=0 / deadzone=21,11 / fast_pskip=0 / chroma_qp_offset=-3 / threads=6 / lookahead_threads=1 / sliced_threads=0 / nr=0 / decimate=1 / interlaced=0 / bluray_compat=0 / constrained_intra=0 / bframes=16 / b_pyramid=2 / b_adapt=2 / b_bias=0 / direct=3 / weightb=1 / open_gop=0 / weightp=2 / keyint=250 / keyint_min=25 / scenecut=40 / intra_refresh=0 / rc_lookahead=40 / rc=2pass / mbtree=0 / bitrate=3750 / ratetol=1.0 / qcomp=0.60 / qpmin=0 / qpmax=69 / qpstep=4 / cplxblur=20.0 / qblur=0.5 / vbv_maxrate=14000 / vbv_bufsize=14000 / nal_hrd=none / filler=0 / ip_ratio=1.40 / pb_ratio=1.30 / aq=1:1.00
Язык : English
Default : Да
Forced : Нет

Аудио
Идентификатор : 2
Формат : AAC LC
Формат/Информация : Advanced Audio Codec Low Complexity
Идентификатор кодека : A_AAC-2
Продолжительность : 1 ч. 43 м.
Битрейт : 76,0 Кбит/сек
Каналы : 2 канала
Channel layout : L R
Частота : 48,0 КГц
Частота кадров : 46,875 кадров/сек (1024 SPF)
Метод сжатия : С потерями
Задержка видео : 9 мс.
Размер потока : 56,3 Мбайт (2%)
Язык : Russian
Default : Да
Forced : Нет

Текст #1
Идентификатор : 3
Формат : UTF-8
Идентификатор кодека : S_TEXT/UTF8
Идентификатор кодека/Информация : UTF-8 Plain Text
Продолжительность : 39 м. 3 с.
Битрейт : 3 бит/сек
Count of elements : 22
Размер потока : 1,12 Кбайт (0%)
Заголовок : Русские (форсированные)
Язык : Russian
Default : Да
Forced : Нет

Текст #2
Идентификатор : 4
Формат : UTF-8
Идентификатор кодека : S_TEXT/UTF8
Идентификатор кодека/Информация : UTF-8 Plain Text
Продолжительность : 1 ч. 36 м.
Битрейт : 77 бит/сек
Count of elements : 958
Размер потока : 54,8 Кбайт (0%)
Заголовок : Русские
Язык : Russian
Default : Нет
Forced : Нет

Текст #3
Идентификатор : 5
Формат : UTF-8
Идентификатор кодека : S_TEXT/UTF8
Идентификатор кодека/Информация : UTF-8 Plain Text
Продолжительность : 1 ч. 32 м.
Битрейт : 52 бит/сек
Count of elements : 952
Размер потока : 35,9 Кбайт (0%)
Заголовок : Английские
Язык : English
Default : Нет
Forced : Нет

Меню #1
00:00:00.000 : en:Глава 1
00:05:24.280 : en:Глава 2
00:12:39.720 : en:Глава 3
00:17:58.600 : en:Глава 4
00:24:22.720 : en:Глава 5
00:31:16.600 : en:Глава 6
00:36:24.200 : en:Глава 7
00:41:11.400 : en:Глава 8
00:48:53.440 : en:Глава 9
00:55:32.640 : en:Глава 10
01:02:05.320 : en:Глава 11
01:06:26.360 : en:Глава 12
01:16:56.080 : en:Глава 13
01:24:03.760 : en:Глава 14
01:38:04.640 : en:Глава 15

Меню #2
00:00:00.000 : en:Chapter 01
00:05:25.992 : en:Chapter 02
00:11:53.421 : en:Chapter 03
00:15:46.946 : en:Chapter 04
00:21:24.908 : en:Chapter 05
00:24:10.031 : en:Chapter 06
00:28:40.301 : en:Chapter 07
00:31:35.560 : en:Chapter 08
00:34:20.641 : en:Chapter 09
00:37:50.643 : en:Chapter 10
00:41:40.748 : en:Chapter 11
00:44:27.373 : en:Chapter 12
00:47:33.308 : en:Chapter 13
00:49:05.692 : en:Chapter 14
00:51:20.368 : en:Chapter 15
00:54:38.483 : en:Chapter 16
00:59:25.520 : en:Chapter 17
01:01:04.744 : en:Chapter 18
01:06:44.000 : en:Chapter 19
01:10:50.329 : en:Chapter 20
01:13:06.131 : en:Chapter 21
01:17:41.365 : en:Chapter 22
01:21:53.742 : en:Chapter 23
01:24:12.422 : en:Chapter 24
01:27:24.530 : en:Chapter 25
01:29:39.082 : en:Chapter 26
01:34:45.680 : en:Chapter 27
01:38:32.907 : en:Chapter 28
01:43:35.584 : en:Chapter 29

piratbit.org



Скачать День, когда Земля остановилась через торрент https://pic1.kartinco.top/new/img/2021-09/20/t2ntwvxhnp81ybjgdr2hpkuwr.png Скачать, смотреть онлайн День, когда Земля остановилась бесплантно в хорошем качестве Описание: Сюжет повествует о том, как Вашингтон становится невольным приемным домом, куда прибывает инопланетный посланник Клаату и его ... 10 10 3
Торрент: Зарегистрирован [2021-11-24 10:43] · скачан: 65 раз
Статус: T временная
Размер: 2.74 GB
Как cкачать? Как скачать День, когда Земля остановилась через торрент | UTorrent

% Раздел Тема Автор DL S | L
Фильмы [HD 720p, 1080p] (Хороший звук DUB, MVO) [ 5.53 GB ] День когда Земля остановилась / The Day the Earth Stood Still [2008 BDRip 1080p HEVC ()] Мичман37 Скачать
1 | 0
Фильмы (WEB-DL 720p, 1080p) [ 8.61 GB ] День когда Земля остановилась / The Day the Earth Stood Still [Open Matte] [2008 HDTVRip 1080p] DUB+AVO+OriginalSubs Assasinca Скачать
1 | 4
Фильмы [HD 720p, 1080p] (Хороший звук DUB, MVO) [ 7.95 GB ] День когда Земля остановилась / The Day the Earth Stood Still [2008 BDRip 1080p Авторский -Lockdown- Скачать
1 | 0
Фильмы 2006-2008 [ 1.45 GB ] День когда Земля остановилась / The Day the Earth Stood Stil [2008 HDRiр-AVC от R.G. AVI / AVC DUB ] ~Relizer~ Скачать
1 | 0
Фильмы 2006-2008 [ 2.05 GB ] День когда Земля остановилась / The Day the Earth Stood Still [2008 DVDRip DUB лицензия] DJERG Скачать
1 | 0
Фильмы 2006-2008 [ 1.48 GB ] День когда Земля остановилась /The Day the Earth Stood Still [2008 ... DVDRip лицензия] kuvagen Скачать
1 | 0
Фильмы [HD 720p, 1080p] (Хороший звук DUB, MVO) [ 4.92 GB ] День когда Земля остановилась / Day the Earth Stood Still The [2008 BDRip ] POCIK Скачать
1 | 0


Последний раз редактировалось: TimeCop (2021-11-24 12:30), всего редактировалось 15 раз(а)
  За перезалив раздачи со статусом недооформлено, выдал bober100

28-11-2019 20:33  

Отключить всю рекламу на сайте

24-11-2021 11:04 День, когда Земля остановилась Скачать торрент  

мне фильм понравилсяpiratbit.org



    Дорогой пользователь! Огромная просьба, поблагодарите релизера, оцените раздачу и оставьте свои комментарий, если Вы скачали День, когда Земля остановилась через торрент бесплатно!
    Комментировать посты могут только пользователи прошедшие не сложную регистрацию
    Показать сообщения:    

    День, когда Земля остановилась через торрент
    Скачать бесплатно День, когда Земля остановилась
    День, когда Земля остановилась скачать торрент
    День, когда Земля остановилась смотреть онлайн
    Cкачать фильм День, когда Земля остановилась бесплатно
    День, когда Земля остановилась скачать торрент в хорошем качестве
    День, когда Земля остановилась смотреть онлайн бесплатно в хорошем качестве


    Вы не можете начинать темы
    Вы не можете отвечать на сообщения
    Вы не можете редактировать свои сообщения
    Вы не можете удалять свои сообщения
    Вы не можете голосовать в опросах
    Вы не можете прикреплять файлы к сообщениям
    Вы можете скачивать файлы