Anonymous, доброй ночи, присоединяйтесь к нам в Telegram!, здесь всегда актуальный адрес сайта, оперативная поддержка и многое другое!

>

5.6

iTunes

7.4

iTunes

5.7

MVO

1

7.7

1 сезон

6.8

iTunes

7.3

1 сезон

13

6.7

1 сезон

8.3

RePack

30

ULTIMATE

pack

9.9

Лицензия

ВАЖНО

ИГРА 18+

pack

7.3

RePack

MK11

7.7

RePack

jed

7.8

RePack

fifa19

8.5

RePack

RDR2

RePack

NEED FOR SPEED™ PAYBACK

4 сезон

9 сезон

Бесстыжие 9 сезон

Все сериалы

все сериалы на PB.wtf

RePack

FAR CRY 5

Anonymous, доброй ночи, мы катастрофически не успеваем собрать деньги на оплату серверов, помогите нам пожалуйста 5,10,15р., для нас важна любая помощь . В качестве благодарности мы отключим Вам всю рекламу на сайте (укажите свой ник в строку Ваше имя)!

×
  
Magnet ссылка

Главный герой / Free Guy (Шон Леви) [2021, Фантастика, боевик, комедия, BDRip 1080p] DUB (rus, ukr) [iTunes] piratbit.org

Главный герой через торрент piratbit.org

Раздают: 23 [ 5 MB/s ] Качают: 2 [ 719 KB/s ]
Размер: 12.22 GB | Добавлен: 2 д. 6 ч. назад | Торрент скачан:228 раз
Смотреть онлайн Главный герой | Скачать    Ребята, помогите собрать деньги на оплату серверов!!!

24-09-2021 19:21 Главный герой Скачать торрент  

Главный герой | Free Guy
Год выпуска: 2021
Страна: США, Канада, Япония
Выпущено: 20th Century Studios, 21 Laps Entertainment, Berlanti Productions, Lit Entertainment Group, Maximum Effort
Жанр: Фантастика, боевик, комедия
Продолжительность: 01:54:58
Перевод: Дублированный | iTunes
Субтитры: Русские (Forced, 2 x full), украинские (Forced, full), английские

Режиссер: Шон Леви

rating

В ролях: Райан Рейнольдс, Тайка Вайтити, Джоди Комер, Лил Рел Ховери, Джо Кири, Уткарш Амбудкар, Ченнинг Татум, Софи Леви, Бритни Олдфорд, Кайла Рэй Веске

Описание: Фильм «Главный герой» рассказывает о простом банковском клерке, чью жизнь можно было описать как сплошную рутину — до тех пор, пока он не обнаруживает, что все вокруг него является частью масштабной видеоигры, где каждый может делать все, что хочет. А он — единственный, кто спасет этот мир от полного уничтожения.

Качество: BDRip 1080p
Формат: MKV

Видео: MPEG-4 AVC, 1920x804, 14.0 Mbit/s, 23.976 fps
Аудио #01: 48 kHz, AC3, 5.1, 384 Kbps | iTunes | RUS |
Аудио #02: 48 kHz, AC3, 2.0, 192 Kbps | iTunes | UKR |
Аудио #03: 48 kHz, AC3, 5.1, 640 Kbps | Оригинал | ENG |
скриншот  скриншот  скриншот  скриншот  скриншот  

General
Unique ID : 274168951555633802907772992797648660792 (0xCE4304F4EC3A89F7D54677C1EF54A938)
Complete name : E:VideoFree.Guy.2021.BDRip.1080p.seleZen.mkv
Format : Matroska
Format version : Version 4
File size : 12.2 GiB
Duration : 1 h 54 min
Overall bit rate : 15.2 Mb/s
Movie name : Free Guy 2021 from seleZen
Encoded date : UTC 2021-10-14 18:25:11
Writing application : mkvmerge v59.0.0 ('Shining Star') 64-bit
Writing library : libebml v1.4.2 + libmatroska v1.6.4

Video
ID : 1
Format : AVC
Format/Info : Advanced Video Codec
Format profile : High@L4.1
Format settings : CABAC / 5 Ref Frames
Format settings, CABAC : Yes
Format settings, Reference frames : 5 frames
Codec ID : V_MPEG4/ISO/AVC
Duration : 1 h 54 min
Bit rate : 14.0 Mb/s
Width : 1 920 pixels
Height : 804 pixels
Display aspect ratio : 2.40:1
Frame rate mode : Constant
Frame rate : 23.976 (24000/1001) FPS
Color space : YUV
Chroma subsampling : 4:2:0
Bit depth : 8 bits
Scan type : Progressive
Bits/(Pixel*Frame) : 0.378
Stream size : 11.2 GiB (92%)
Title : WiKi
Writing library : x264 core 133 r2334 a3ac64b
Encoding settings : cabac=1 / ref=5 / deblock=1:-3:-3 / analyse=0x3:0x113 / me=umh / subme=11 / psy=1 / psy_rd=1.00:0.00 / mixed_ref=1 / me_range=64 / chroma_me=1 / trellis=2 / 8x8dct=1 / cqm=0 / deadzone=21,11 / fast_pskip=0 / chroma_qp_offset=-4 / threads=36 / lookahead_threads=6 / sliced_threads=0 / nr=0 / decimate=0 / interlaced=0 / bluray_compat=0 / constrained_intra=0 / bframes=10 / b_pyramid=2 / b_adapt=2 / b_bias=0 / direct=3 / weightb=1 / open_gop=0 / weightp=2 / keyint=250 / keyint_min=23 / scenecut=40 / intra_refresh=0 / rc=2pass / mbtree=0 / bitrate=14000 / ratetol=1.0 / qcomp=0.60 / qpmin=0 / qpmax=69 / qpstep=4 / cplxblur=20.0 / qblur=0.5 / ip_ratio=1.40 / pb_ratio=1.30 / aq=1:0.80
Language : English
Default : Yes
Forced : No

Audio #1
ID : 2
Format : AC-3
Format/Info : Audio Coding 3
Commercial name : Dolby Digital
Codec ID : A_AC3
Duration : 1 h 54 min
Bit rate mode : Constant
Bit rate : 384 kb/s
Channel(s) : 6 channels
Channel layout : L R C LFE Ls Rs
Sampling rate : 48.0 kHz
Frame rate : 31.250 FPS (1536 SPF)
Compression mode : Lossy
Stream size : 316 MiB (3%)
Title : iTunes
Language : Russian
Service kind : Complete Main
Default : Yes
Forced : Yes

Audio #2
ID : 3
Format : AC-3
Format/Info : Audio Coding 3
Commercial name : Dolby Digital
Codec ID : A_AC3
Duration : 1 h 54 min
Bit rate mode : Constant
Bit rate : 192 kb/s
Channel(s) : 2 channels
Channel layout : L R
Sampling rate : 48.0 kHz
Frame rate : 31.250 FPS (1536 SPF)
Compression mode : Lossy
Stream size : 158 MiB (1%)
Title : iTunes
Language : Ukrainian
Service kind : Complete Main
Default : No
Forced : No

Audio #3
ID : 4
Format : AC-3
Format/Info : Audio Coding 3
Commercial name : Dolby Digital
Codec ID : A_AC3
Duration : 1 h 54 min
Bit rate mode : Constant
Bit rate : 640 kb/s
Channel(s) : 6 channels
Channel layout : L R C LFE Ls Rs
Sampling rate : 48.0 kHz
Frame rate : 31.250 FPS (1536 SPF)
Compression mode : Lossy
Stream size : 526 MiB (4%)
Title : Original
Language : English
Service kind : Complete Main
Default : No
Forced : No

Text #1
ID : 5
Format : UTF-8
Codec ID : S_TEXT/UTF8
Codec ID/Info : UTF-8 Plain Text
Duration : 1 h 39 min
Bit rate : 2 b/s
Count of elements : 51
Stream size : 1.80 KiB (0%)
Title : Forced
Language : Russian
Default : Yes
Forced : Yes

Text #2
ID : 6
Format : UTF-8
Codec ID : S_TEXT/UTF8
Codec ID/Info : UTF-8 Plain Text
Duration : 1 h 54 min
Bit rate : 107 b/s
Count of elements : 1895
Stream size : 89.8 KiB (0%)
Title : Full [iTunes]
Language : Russian
Default : No
Forced : No

Text #3
ID : 7
Format : UTF-8
Codec ID : S_TEXT/UTF8
Codec ID/Info : UTF-8 Plain Text
Duration : 1 h 32 min
Bit rate : 1 b/s
Count of elements : 34
Stream size : 1.17 KiB (0%)
Title : Forced
Language : Ukrainian
Default : No
Forced : No

Text #4
ID : 8
Format : UTF-8
Codec ID : S_TEXT/UTF8
Codec ID/Info : UTF-8 Plain Text
Duration : 1 h 54 min
Bit rate : 107 b/s
Count of elements : 1895
Stream size : 90.0 KiB (0%)
Title : Full [iTunes]
Language : Ukrainian
Default : No
Forced : No

Text #5
ID : 9
Format : UTF-8
Codec ID : S_TEXT/UTF8
Codec ID/Info : UTF-8 Plain Text
Duration : 1 h 45 min
Bit rate : 114 b/s
Count of elements : 1886
Stream size : 88.2 KiB (0%)
Title : Full [MENINSUB]
Language : Russian
Default : No
Forced : No

Text #6
ID : 10
Format : UTF-8
Codec ID : S_TEXT/UTF8
Codec ID/Info : UTF-8 Plain Text
Duration : 13 s 597 ms
Bit rate : 98 b/s
Count of elements : 6
Stream size : 168 Bytes (0%)
Title : Forced
Language : English
Default : No
Forced : No

Text #7
ID : 11
Format : UTF-8
Codec ID : S_TEXT/UTF8
Codec ID/Info : UTF-8 Plain Text
Duration : 1 h 45 min
Bit rate : 80 b/s
Count of elements : 1861
Stream size : 62.2 KiB (0%)
Title : Full
Language : English
Default : No
Forced : No

Text #8
ID : 12
Format : UTF-8
Codec ID : S_TEXT/UTF8
Codec ID/Info : UTF-8 Plain Text
Duration : 1 h 45 min
Bit rate : 91 b/s
Count of elements : 2135
Stream size : 70.5 KiB (0%)
Title : SDH
Language : English
Default : No
Forced : No

Menu
00:00:00.000 : Chapter 01
00:05:09.100 : Chapter 02
00:08:43.815 : Chapter 03
00:14:29.702 : Chapter 04
00:21:25.701 : Chapter 05
00:24:06.028 : Chapter 06
00:28:25.245 : Chapter 07
00:34:21.810 : Chapter 08
00:39:40.837 : Chapter 09
00:44:10.731 : Chapter 10
00:48:47.967 : Chapter 11
00:52:47.748 : Chapter 12
00:56:18.375 : Chapter 13
01:00:17.739 : Chapter 14
01:04:41.920 : Chapter 15
01:09:13.816 : Chapter 16
01:15:13.300 : Chapter 17
01:19:14.083 : Chapter 18
01:23:59.326 : Chapter 19
01:28:06.406 : Chapter 20
01:33:07.415 : Chapter 21
01:39:19.954 : Chapter 22
01:44:22.506 : Chapter 23
01:46:13.993 : Chapter 24

piratbit.org



Скачать Главный герой через торрент https://d.radikal.ru/d22/2110/e4/376ab50b5552.jpg Скачать, смотреть онлайн Главный герой бесплантно в хорошем качестве Описание: Фильм «Главный герой» рассказывает о простом банковском клерке, чью жизнь можно было описать как сплошную рутину — до тех пор, ... 9.6 10 26
Info! Золотая раздача, скачанное не засчитывается.
Торрент: Зарегистрирован [2021-10-14 18:29] · скачан: 228 раз
Статус: √ проверено
Размер: 12.22 GB
Как cкачать? Как скачать Главный герой через торрент | UTorrent

% Раздел Тема Автор DL S | L
Фильмы (HD 720p, 1080p) (48-60 fps) [ 3.29 GB ] Главный герой / Free Guy [2021 WEB-DLRip - HEVC 1080p 10 bit 60 FPS DUB] dd2d3 Скачать
17 | 1
Фильмы 2021 [DVDrip, WEB-DLRip, HDrip] (DUB, MVO) [ 2.13 GB ] Главный герой / Free Guy [2021 BDRip] DUB bober100 Скачать
8 | 0
Фильмы 2021 [DVDrip, WEB-DLRip, HDrip] (DUB, MVO) [ 1.41 GB ] Главный герой / Free Guy [2021 BDRip] bober100 Скачать
12 | 1
Ultra HD (UHD: 2K, 4K, 8K) — видео сверхвысокой чёткости [ 47.49 GB ] Главный герой / Free Guy [2021 UHD BDRemux 2160p] DUB bober100 Скачать
34 | 4
Фильмы [HD 720p, 1080p] (Хороший звук DUB, MVO) [ 5.8 GB ] Главный герой / Free Guy [2021 BDRip 720p] DUB bober100 Скачать
20 | 0
T Фильмы 2021 (Звук TS, Cam, VO, DVO) [ 1.47 GB ] Главный герой / Free Guy [2021 BDRip] DVO [Pazl Voice] Twi7ter Скачать
676 | 1
T Фильмы [HD 720p, 1080p] (Хороший звук DUB, MVO) [ 6.13 GB ] Главный герой / Free Guy [2021 BDRip 1080p] [Line] + [DVO] killermax2013 Скачать
68 | 1

28-11-2019 20:33  

Отключить всю рекламу на сайте

    Дорогой пользователь! Огромная просьба, поблагодарите релизера, оцените раздачу и оставьте свои комментарий, если Вы скачали Главный герой через торрент бесплатно!
    Комментировать посты могут только пользователи прошедшие не сложную регистрацию
    Показать сообщения:    

    Главный герой через торрент
    Скачать бесплатно Главный герой
    Главный герой скачать торрент
    Главный герой смотреть онлайн
    Cкачать фильм Главный герой бесплатно
    Главный герой скачать торрент в хорошем качестве
    Главный герой смотреть онлайн бесплатно в хорошем качестве


    Вы не можете начинать темы
    Вы не можете отвечать на сообщения
    Вы не можете редактировать свои сообщения
    Вы не можете удалять свои сообщения
    Вы не можете голосовать в опросах
    Вы не можете прикреплять файлы к сообщениям
    Вы можете скачивать файлы