Anonymous, доброй ночи, присоединяйтесь к нам в Telegram!, здесь всегда актуальный адрес сайта, оперативная поддержка и многое другое!

>

5.6

iTunes

7.4

iTunes

5.7

MVO

1

7.7

1 сезон

6.8

iTunes

7.3

1 сезон

13

6.7

1 сезон

8.3

RePack

30

ULTIMATE

pack

9.9

Лицензия

ВАЖНО

ИГРА 18+

pack

7.3

RePack

MK11

7.7

RePack

jed

7.8

RePack

fifa19

8.5

RePack

RDR2

RePack

NEED FOR SPEED™ PAYBACK

4 сезон

9 сезон

Бесстыжие 9 сезон

Все сериалы

все сериалы на PB.wtf

RePack

FAR CRY 5

Anonymous, доброй ночи, мы катастрофически не успеваем собрать деньги на оплату серверов, помогите нам пожалуйста 5,10,15р., для нас важна любая помощь . В качестве благодарности мы отключим Вам всю рекламу на сайте (укажите свой ник в строку Ваше имя)!

×
  
Magnet ссылка

Последний день Земли / Le dernier voyage (Ромен Киро) [2020, Фантастика, драма, приключения, BDRip 1080p] DUB (rus, ukr) [iTunes] piratbit.org

Последний день Земли через торрент piratbit.org

Раздают: 14 [ 2 MB/s ] Качают: 2 [ 0 KB/s ]
Размер: 9.33 GB | Добавлен: 3 д. назад | Торрент скачан:89 раз
Смотреть онлайн Последний день Земли | Скачать    Ребята, помогите собрать деньги на оплату серверов!!!

29-09-2021 00:11 Последний день Земли Скачать торрент  

Последний день Земли
Le dernier voyage

Год выпуска: 2020
Страна: Франция
Выпущено: Apaches, Digital District, Belga Productions
Жанр: Фантастика, драма, приключения
Продолжительность: 01:26:55
Перевод: Дублированный | RUS | iTunes
Субтитры: отсутствуют

Режиссер: Ромен Киро

rating

[b]В ролях: Юго Беккер, Жан Рено, Поль Ами, Лиа Уссади-Лессер, Филипп Катрин, Брюно Лоше, Эмили Гавуа-Кан, Жан-Люк Кушар, Дариус Гарривье, Жан-Баптист Бланк

Описание: Будущее. Из-за чрезмерного использования энергии Красная луна меняет траекторию и направляется прямо к Земле. Пол В.Р. - единственный астронавт, способный ее уничтожить, отказывается выполнять миссию и таинственным образом исчезает. Неустанно преследуемый, Пол встречает Эльму - подростка с взрывным темпераментом, - которая будет сопровождать его в этом побеге.

Качество: BDRip 1080p
Формат: MKV

Видео: MPEG-4 AVC, 13.9 Мb/s, 1920x804
Аудио #1: Russian: 48 kHz, AC3 Dolby Digital, 3/2 (L, C, R, l, r) + LFE ch, ~384 Kbps | DUB | iTunes
Аудио #2: Ukrainian: 48 kHz, AC3 Dolby Digital, 3/2 (L, C, R, l, r) + LFE ch, ~448 Kbps | DUB
Аудио #3: French: 48 kHz, AC3 Dolby Digital, 3/2 (L, C, R, l, r) + LFE ch, ~640 Kbps | Original
скриншот  скриншот  скриншот  скриншот  

Complete name: Posledniy.den.Zemli.2020.BDRip.1080p.ELEKTRI4KA.UNIONGANG.mkv
Format: Matroska
Format version: Version 4
File size: 9.33 GiB
Duration: 1 h 26 min
Overall bit rate: 15.4 Mb/s
Movie name: Posledniy.den.Zemli.2020.BDRip.1080p.ELEKTRI4KA.UNIONGANG.
Encoded date: UTC 2021-10-12 18:10:48
Writing application: mkvmerge v8.3.0 ('Over the Horizon') 32bit
Writing library: libebml v1.3.1 + libmatroska v1.4.2

Video
ID: 1
Format: AVC
Format/Info: Advanced Video Codec
Format profile: High@L4.1
Format settings: CABAC / 5 Ref Frames
Format settings, CABAC: Yes
Format settings, Reference frames: 5 frames
Codec ID: V_MPEG4/ISO/AVC
Duration: 1 h 26 min
Bit rate: 13.9 Mb/s
Width: 1 920 pixels
Height: 804 pixels
Display aspect ratio: 2.40:1
Frame rate mode: Constant
Frame rate: 24.000 FPS
Color space: YUV
Chroma subsampling: 4:2:0
Bit depth: 8 bits
Scan type: Progressive
Bits/(Pixel*Frame): 0.375
Stream size: 8.43 GiB (90%)
Writing library: x264 core 146 r2538 121396c
Encoding settings: cabac=1 / ref=5 / deblock=1:-3:-3 / analyse=0x3:0x133 / me=umh / subme=10 / psy=1 / psy_rd=1.00:0.00 / mixed_ref=1 / me_range=32 / chroma_me=1 / trellis=2 / 8x8dct=1 / cqm=0 / deadzone=21, 11 / fast_pskip=0 / chroma_qp_offset=-2 / threads=36 / lookahead_threads=6 / sliced_threads=0 / nr=0 / decimate=0 / interlaced=0 / bluray_compat=0 / constrained_intra=0 / bframes=8 / b_pyramid=2 / b_adapt=2 / b_bias=0 / direct=1 / weightb=1 / open_gop=0 / weightp=2 / keyint=240 / keyint_min=23 / scenecut=40 / intra_refresh=0 / rc_lookahead=50 / rc=crf / mbtree=0 / crf=17.0 / qcomp=0.60 / qpmin=0 / qpmax=51 / qpstep=4 / vbv_maxrate=50000 / vbv_bufsize=62500 / crf_max=0.0 / nal_hrd=none / filler=0 / ip_ratio=1.40 / pb_ratio=1.30 / aq=3:0.80
Language: English
Default: Yes
Forced: No

Audio #1
ID: 2
Format: AC-3
Format/Info: Audio Coding 3
Commercial name: Dolby Digital
Codec ID: A_AC3
Duration: 1 h 26 min
Bit rate mode: Constant
Bit rate: 384 kb/s
Channel(s): 6 channels
Channel layout: L R C LFE Ls Rs
Sampling rate: 48.0 kHz
Frame rate: 31.250 FPS (1536 SPF)
Compression mode: Lossy
Stream size: 238 MiB (2%)
Title: DUB (iTunes)
Language: Russian
Service kind: Complete Main
Default: Yes
Forced: Yes

Audio #2
ID: 3
Format: AC-3
Format/Info: Audio Coding 3
Commercial name: Dolby Digital
Codec ID: A_AC3
Duration: 1 h 26 min
Bit rate mode: Constant
Bit rate: 448 kb/s
Channel(s): 6 channels
Channel layout: L R C LFE Ls Rs
Sampling rate: 48.0 kHz
Frame rate: 31.250 FPS (1536 SPF)
Compression mode: Lossy
Stream size: 278 MiB (3%)
Title: DUB
Language: Ukrainian
Service kind: Complete Main
Default: No
Forced: No

Audio #3
ID: 4
Format: AC-3
Format/Info: Audio Coding 3
Commercial name: Dolby Digital
Codec ID: A_AC3
Duration: 1 h 26 min
Bit rate mode: Constant
Bit rate: 640 kb/s
Channel(s): 6 channels
Channel layout: L R C LFE Ls Rs
Sampling rate: 48.0 kHz
Frame rate: 31.250 FPS (1536 SPF)
Compression mode: Lossy
Stream size: 398 MiB (4%)
Title: Original
Language: French
Service kind: Complete Main
Default: No
Forced: No

Menu
00:00:00.000: en:Chapter 01
00:06:20.208: en:Chapter 02
00:13:23.166: en:Chapter 03
00:21:08.250: en:Chapter 04
00:27:34.208: en:Chapter 05
00:35:41.708: en:Chapter 06
00:43:41.833: en:Chapter 07
00:50:54.791: en:Chapter 08
00:58:45.083: en:Chapter 09
01:04:54.958: en:Chapter 10
01:11:40.166: en:Chapter 11
01:18:23.208: en:Chapter 12
01:21:43.875: en:Chapter 13

piratbit.org



Скачать Последний день Земли через торрент https://i115.fastpic.org/big/2021/0929/50/ca4e6779e5b630a70d86f0fd2950eb50.jpg Скачать, смотреть онлайн Последний день Земли бесплантно в хорошем качестве Описание: Будущее. Из-за чрезмерного использования энергии Красная луна меняет траекторию и направляется прямо к Земле. Пол В.Р. - ... 9.4 10 14
Торрент: Зарегистрирован [2021-10-13 04:07] · скачан: 89 раз
Статус: √ проверено
Размер: 9.33 GB
Как cкачать? Как скачать Последний день Земли через торрент | UTorrent

% Раздел Тема Автор DL S | L
Фильмы (Blu-ray, BD-Remux, HDDVD) [ 13.75 GB ] Последний день Земли / Le dernier voyage [2020 BD Remux 1080p] DUB bober100 Скачать
4 | 0
Фильмы [HD 720p, 1080p] (Хороший звук DUB, MVO) [ 4.53 GB ] Последний день Земли / Le dernier voyage [2020 BDRip 720p] DUB | -=BIGBOSS=- Скачать
10 | 1
Фильмы 2019-2020 [DVDrip, WEB-DLRip, HDrip] (DUB, MVO) [ 710 MB ] Последний день Земли / Le dernier voyage [2020 HDRip ""] coc900 Скачать
10 | 0
T Фильмы 2019-2020 [DVDrip, WEB-DLRip, HDrip] (DUB, MVO) [ 1.48 GB ] Последний день Земли / Le dernier voyage [2020 WEB-DLRip-AVC] DUB [Line Svoe Kino] от MediaBit Lithuania Скачать
6 | 0
T Фильмы 2019-2020 [DVDrip, WEB-DLRip, HDrip] (DUB, MVO) [ 1.46 GB ] Последний день Земли / Le dernier voyage [2020 BDRip] DUB [Прайм продакшн / Line] bober100 Скачать
19 | 0


Последний раз редактировалось: bober100 (2021-10-13 04:09), всего редактировалось 2 раз(а)

28-11-2019 20:33  

Отключить всю рекламу на сайте

29-09-2021 06:46 Последний день Земли Скачать торрент  

Такого бреда я давно не видел piratbit.org



29-09-2021 11:56 Последний день Земли Скачать торрент  

На 10 минуте рубануло,очнулся под конец фильма!) piratbit.org



30-09-2021 05:40 Последний день Земли Скачать торрент  

вы чё под водочку смотрели?piratbit.org



13-10-2021 05:12 Последний день Земли Скачать торрент  

Угадаю, в фильме: "Последний день земли" день был не последним.piratbit.org



    Дорогой пользователь! Огромная просьба, поблагодарите релизера, оцените раздачу и оставьте свои комментарий, если Вы скачали Последний день Земли через торрент бесплатно!
    Комментировать посты могут только пользователи прошедшие не сложную регистрацию
    Показать сообщения:    

    Последний день Земли через торрент
    Скачать бесплатно Последний день Земли
    Последний день Земли скачать торрент
    Последний день Земли смотреть онлайн
    Cкачать фильм Последний день Земли бесплатно
    Последний день Земли скачать торрент в хорошем качестве
    Последний день Земли смотреть онлайн бесплатно в хорошем качестве


    Вы не можете начинать темы
    Вы не можете отвечать на сообщения
    Вы не можете редактировать свои сообщения
    Вы не можете удалять свои сообщения
    Вы не можете голосовать в опросах
    Вы не можете прикреплять файлы к сообщениям
    Вы можете скачивать файлы