Anonymous, доброй ночи, присоединяйтесь к нам в Telegram!, здесь всегда актуальный адрес сайта, оперативная поддержка и многое другое!

>

5.6

iTunes

7.4

iTunes

5.7

MVO

1

7.7

1 сезон

6.8

iTunes

7.3

1 сезон

13

6.7

1 сезон

8.3

RePack

30

ULTIMATE

pack

9.9

Лицензия

ВАЖНО

ИГРА 18+

pack

7.3

RePack

MK11

7.7

RePack

jed

7.8

RePack

fifa19

8.5

RePack

RDR2

RePack

NEED FOR SPEED™ PAYBACK

4 сезон

9 сезон

Бесстыжие 9 сезон

Все сериалы

все сериалы на PB.wtf

RePack

FAR CRY 5

Anonymous, доброй ночи, мы катастрофически не успеваем собрать деньги на оплату серверов, помогите нам пожалуйста 5,10,15р., для нас важна любая помощь . В качестве благодарности мы отключим Вам всю рекламу на сайте (укажите свой ник в строку Ваше имя)!

×
  
Magnet ссылка

Легенды Мортал комбат: Битва миров / Легенды «Смертельной битвы»: Битва королевств / Mortal Kombat Legends: Battle of the Realms (Этан Сполдинг) [2021, Мультфильм, фэнтези, боевик, приключения, BDRip 1080p] DUB [Кинопоиск HD] piratbit.org

Легенды Мортал комбат: Битва миров через торрент piratbit.org

Раздают: 15 [ 1 MB/s ]
Размер: 6.19 GB | Добавлен: 15 д. назад | Торрент скачан:306 раз
Смотреть онлайн Легенды Мортал комбат: Битва миров | Скачать    Ребята, помогите собрать деньги на оплату серверов!!!

01-10-2021 13:03 Легенды Мортал комбат: Битва миров Скачать торрент  

Легенды Мортал комбат: Битва миров | Легенды «Смертельной битвы»: Битва королевств
Mortal Kombat Legends: Battle of the Realms

Год выпуска: 2021
Страна: США
Студия: DC Entertainment, Midway Games, Warner Bros. Animation
Жанр: Мультфильм, фэнтези, боевик, приключения
Продолжительность: 01:19:49
Перевод: Дублированный | Кинопоиск HD
Субтитры: Русские (Forced, full), английские

Режиссер: Этан Сполдинг

rating

В ролях: Дженнифер Карпентер, Грэй Гриффин, Джоэл МакХэйл, Айк Амади, Артт Батлер, Байардо Де Мургуйя, Робин Аткин Даунс, Мэтью Ян Кинг, Мэттью Мерсер

Описание: Действие фильма разворачивается сразу же после событий «Мести Скорпиона», в которой герои подвергаются нападению Шао Кана, что заставляет их идти на сделку с врагами. Теперь легендам «Смертельной битвы» нужно отправиться во внешний мир, чтобы защищать Земное царство, в то время как Скорпион продолжает искать магический артефакт Камидогу, который поможет ему уничтожить вселенную.

Качество: BDRip 1080p
Формат: MKV

Видео: MPEG-4 AVC, 1920x1080, 9557 Kbit/s, 23.976 fps
Аудио #01: 48 kHz, E-AC3, 5.1, 448 Kbps | Дублированный | RUS |
Аудио #02: 48 kHz, AC3, 5.1, 448 Kbps | Дублированный | RUS |
Аудио #03: 48 kHz, AC3, 5.1, 640 Kbps | Оригинал | ENG |
скриншот  скриншот  скриншот  скриншот  скриншот  

General
Unique ID : 199992241430013251272557568025170406909 (0x96751AC9C95B5C51FE1195226C85EDFD)
Complete name : E:VideoMortal.Kombat.Legends.Battle.of.the.Realms.2021.BDRip.1080p.seleZen.mkv
Format : Matroska
Format version : Version 4
File size : 6.19 GiB
Duration : 1 h 19 min
Overall bit rate : 11.1 Mb/s
Movie name : Mortal Kombat Legends: Battle of the Realms 2021 from seleZen
Encoded date : UTC 2021-10-01 12:33:55
Writing application : mkvmerge v59.0.0 ('Shining Star') 64-bit
Writing library : libebml v1.4.2 + libmatroska v1.6.4

Video
ID : 1
Format : AVC
Format/Info : Advanced Video Codec
Format profile : High@L4.1
Format settings : CABAC / 4 Ref Frames
Format settings, CABAC : Yes
Format settings, Reference frames : 4 frames
Codec ID : V_MPEG4/ISO/AVC
Duration : 1 h 19 min
Bit rate : 9 557 kb/s
Width : 1 920 pixels
Height : 1 080 pixels
Display aspect ratio : 16:9
Frame rate mode : Constant
Frame rate : 23.976 (24000/1001) FPS
Color space : YUV
Chroma subsampling : 4:2:0
Bit depth : 8 bits
Scan type : Progressive
Bits/(Pixel*Frame) : 0.192
Stream size : 5.33 GiB (86%)
Title : HJ
Writing library : x264 core 157 r2935 545de2f
Encoding settings : cabac=1 / ref=4 / deblock=1:-3:-3 / analyse=0x3:0x133 / me=umh / subme=10 / psy=1 / psy_rd=1.00:0.00 / mixed_ref=1 / me_range=32 / chroma_me=1 / trellis=2 / 8x8dct=1 / cqm=0 / deadzone=21,11 / fast_pskip=0 / chroma_qp_offset=-2 / threads=18 / lookahead_threads=4 / sliced_threads=0 / nr=0 / decimate=0 / interlaced=0 / bluray_compat=0 / constrained_intra=0 / bframes=16 / b_pyramid=2 / b_adapt=2 / b_bias=0 / direct=3 / weightb=1 / open_gop=0 / weightp=2 / keyint=240 / keyint_min=24 / scenecut=40 / intra_refresh=0 / rc_lookahead=60 / rc=crf / mbtree=0 / crf=18.0 / qcomp=0.60 / qpmin=0 / qpmax=69 / qpstep=4 / vbv_maxrate=62500 / vbv_bufsize=78125 / crf_max=0.0 / nal_hrd=none / filler=0 / ip_ratio=1.40 / pb_ratio=1.30 / aq=2:1.00
Language : English
Default : Yes
Forced : No
Color range : Limited
Color primaries : BT.709
Transfer characteristics : BT.709
Matrix coefficients : BT.709

Audio #1
ID : 2
Format : E-AC-3
Format/Info : Enhanced AC-3
Commercial name : Dolby Digital Plus
Codec ID : A_EAC3
Duration : 1 h 19 min
Bit rate mode : Constant
Bit rate : 448 kb/s
Channel(s) : 6 channels
Channel layout : L R C LFE Ls Rs
Sampling rate : 48.0 kHz
Frame rate : 31.250 FPS (1536 SPF)
Compression mode : Lossy
Stream size : 256 MiB (4%)
Title : Dub
Language : Russian
Service kind : Complete Main
Default : Yes
Forced : Yes

Audio #2
ID : 3
Format : AC-3
Format/Info : Audio Coding 3
Commercial name : Dolby Digital
Codec ID : A_AC3
Duration : 1 h 19 min
Bit rate mode : Constant
Bit rate : 448 kb/s
Channel(s) : 6 channels
Channel layout : L R C LFE Ls Rs
Sampling rate : 48.0 kHz
Frame rate : 31.250 FPS (1536 SPF)
Compression mode : Lossy
Stream size : 256 MiB (4%)
Title : Dub
Language : Russian
Service kind : Complete Main
Default : No
Forced : No

Audio #3
ID : 4
Format : AC-3
Format/Info : Audio Coding 3
Commercial name : Dolby Digital
Codec ID : A_AC3
Duration : 1 h 19 min
Bit rate mode : Constant
Bit rate : 640 kb/s
Channel(s) : 6 channels
Channel layout : L R C LFE Ls Rs
Sampling rate : 48.0 kHz
Frame rate : 31.250 FPS (1536 SPF)
Compression mode : Lossy
Stream size : 365 MiB (6%)
Title : Original
Language : English
Service kind : Complete Main
Default : No
Forced : No

Text #1
ID : 5
Format : UTF-8
Codec ID : S_TEXT/UTF8
Codec ID/Info : UTF-8 Plain Text
Duration : 35 min 4 s
Bit rate : 0 b/s
Count of elements : 4
Stream size : 212 Bytes (0%)
Title : Forced
Language : Russian
Default : Yes
Forced : Yes

Text #2
ID : 6
Format : UTF-8
Codec ID : S_TEXT/UTF8
Codec ID/Info : UTF-8 Plain Text
Duration : 1 h 16 min
Bit rate : 49 b/s
Count of elements : 621
Stream size : 27.9 KiB (0%)
Title : Full
Language : Russian
Default : No
Forced : No

Text #3
ID : 7
Format : UTF-8
Codec ID : S_TEXT/UTF8
Codec ID/Info : UTF-8 Plain Text
Duration : 1 h 15 min
Bit rate : 33 b/s
Count of elements : 649
Stream size : 18.7 KiB (0%)
Title : Full
Language : English
Default : No
Forced : No

Text #4
ID : 8
Format : UTF-8
Codec ID : S_TEXT/UTF8
Codec ID/Info : UTF-8 Plain Text
Duration : 1 h 16 min
Bit rate : 40 b/s
Count of elements : 941
Stream size : 23.0 KiB (0%)
Title : SDH
Language : English
Default : No
Forced : No

Menu
00:00:00.000 : :Chapter 1
00:06:47.657 : :Chapter 2
00:16:36.162 : :Chapter 3
00:26:02.478 : :Chapter 4
00:35:15.196 : :Chapter 5
00:42:37.805 : :Chapter 6
00:50:00.998 : :Chapter 7
00:59:14.384 : :Chapter 8
01:08:39.616 : :Chapter 9
01:17:13.671 : :Chapter 10

piratbit.org



Скачать Легенды Мортал комбат: Битва миров через торрент https://a.radikal.ru/a28/2110/26/b77763c4eadd.jpg Скачать, смотреть онлайн Легенды Мортал комбат: Битва миров бесплантно в хорошем качестве Описание: Действие фильма разворачивается сразу же после событий «Мести Скорпиона», в которой герои подвергаются нападению Шао Кана, что ... 9.8 10 16
Торрент: Зарегистрирован [2021-10-01 13:03] · скачан: 306 раз
Статус: √ проверено
Размер: 6.19 GB
Как cкачать? Как скачать Легенды Мортал комбат: Битва миров через торрент | UTorrent

% Раздел Тема Автор DL S | L
Ultra HD (UHD: 2K, 4K, 8K) [ 30.71 GB ] Легенды Мортал комбат: Битва миров / Легенды «Смертельной битвы»: Битва королевств / Mortal Kombat Legends: Battle of the Realms [2021 Мультфильм UHD BDRemux 2160p] DUB [Кинопоиск HD] bober100 Скачать
2 | 0

28-11-2019 20:33  

Отключить всю рекламу на сайте

01-10-2021 14:43 Легенды Мортал комбат: Битва миров Скачать торрент  

неожиданно неплохой и брутальный, по скринам не скажешьpiratbit.org



    Дорогой пользователь! Огромная просьба, поблагодарите релизера, оцените раздачу и оставьте свои комментарий, если Вы скачали Легенды Мортал комбат: Битва миров через торрент бесплатно!
    Комментировать посты могут только пользователи прошедшие не сложную регистрацию
    Показать сообщения:    

    Легенды Мортал комбат: Битва миров через торрент
    Скачать бесплатно Легенды Мортал комбат: Битва миров
    Легенды Мортал комбат: Битва миров скачать торрент
    Легенды Мортал комбат: Битва миров смотреть онлайн
    Cкачать фильм Легенды Мортал комбат: Битва миров бесплатно
    Легенды Мортал комбат: Битва миров скачать торрент в хорошем качестве
    Легенды Мортал комбат: Битва миров смотреть онлайн бесплатно в хорошем качестве


    Вы не можете начинать темы
    Вы не можете отвечать на сообщения
    Вы не можете редактировать свои сообщения
    Вы не можете удалять свои сообщения
    Вы не можете голосовать в опросах
    Вы не можете прикреплять файлы к сообщениям
    Вы можете скачивать файлы