Anonymous, доброй ночи, присоединяйтесь к нам в Telegram!, здесь всегда актуальный адрес сайта, оперативная поддержка и многое другое!

>

5.6

iTunes

7.4

iTunes

5.7

MVO

1

7.7

1 сезон

6.8

iTunes

7.3

1 сезон

13

6.7

1 сезон

8.3

RePack

30

ULTIMATE

pack

9.9

Лицензия

ВАЖНО

ИГРА 18+

pack

7.3

RePack

MK11

7.7

RePack

jed

7.8

RePack

fifa19

8.5

RePack

RDR2

RePack

NEED FOR SPEED™ PAYBACK

4 сезон

9 сезон

Бесстыжие 9 сезон

Все сериалы

все сериалы на PB.wtf

RePack

FAR CRY 5

Anonymous, доброй ночи, мы катастрофически не успеваем собрать деньги на оплату серверов, помогите нам пожалуйста 5,10,15р., для нас важна любая помощь . В качестве благодарности мы отключим Вам всю рекламу на сайте (укажите свой ник в строку Ваше имя)!

×
  
Magnet ссылка

Алиса в Пограничье / Alice in Borderland / Сезон: 1 / Серии: 1-8 из 8 (Синсуке Сато) [2020 г., боевик, фантастика, драма, детектив, WEB-DLRip на КПК] MVO (LostFilm) piratbit.org

Алиса в Пограничье через торрент piratbit.org

Размер: 1.91 GB | Добавлен: 13 д. назад | Торрент скачан:13 раз
Смотреть онлайн Алиса в Пограничье | Скачать    Ребята, помогите собрать деньги на оплату серверов!!!

03-10-2021 16:02 Алиса в Пограничье Скачать торрент  

Алиса в Пограничье / Imawa no Kuni no Arisu

Год выпуска: 2020
Страна: Япония
Жанр: боевик, фантастика, драма, детектив
Продолжительность: ~ 00:50:00
Перевод: Профессиональный (многоголосый закадровый) |LostFilm|
Субтитры: нет
Оригинальная аудиодорожка: нет

Режиссер: Синсуке Сато
В ролях: Кэнто Ямадзаки, Тао Цутия,Нидзиро Мураками, Юки Моринага, Кэйта Матида, Аяка Миёси, Дори Сакурада, Ая Асахина, Сюнтаро Янаги, Ютаро Ватанабэ

Описание: Будьте осторожны со своими желаниями — они имеют свойство сбываться. Трем друзьям из Токио пришлось убедиться в этом на собственной шкуре. Бешеный темп жизни, высокая конкуренция, давление общества — кому в таких условиях не захочется оказаться в месте, где не нужно думать о завтрашнем дне и пытаться оправдать надежды родителей? Рёхей Арису (Кэнто Ямадзаки) еще не знал, что скоро его будут волновать совсем другие проблемы. Например, как не попасть под убийственный красный лазер и вернуться в родной мир. Вместе со своими друзьями Дайкити Карубэ (Кэйта Матида) и Тётой Сэгава (Юки Моринага) Рёхей обнаруживает себя в опустевшем Токио. Даже электричество покинуло столицу: под вечер перед ребятами загорается только огромный экран, сообщающий о том, что игра скоро начнется. С этого момента для того, чтобы выжить, героям придется участвовать в опасных испытаниях на силу, интеллект, командную работу и стойкость психики. Заядлый геймер Рёхей быстро улавливает логику, лежащую в основе садистских игр. Но какой же безумец стоит за всем этим и в чем заключается его цель?



Релиз от:
Рип от: Страна

Качество: WEB-DLRip
Формат: MP4
Видео: AVC, 640x320, 580 kbps, 23,976 fps
Аудио: AAC, 2 ch, kHz, 128 Kbps
Общее
Полное имя : D:\Кино\Alice.in.Borderland.S01.640х\Alice.in.Borderland.S01E01.mp4
Формат : MPEG-4
Профиль формата : Base Media
Идентификатор кодека : isom
Размер файла : 247 Мбайт
Продолжительность : 48 м.
Режим общего битрейта : Переменный
Общий поток : 712 Кбит/сек
Дата кодирования : UTC 2021-10-03 10:38:24
Дата пометки : UTC 2021-10-03 10:38:24

Видео
Идентификатор : 1
Формат : AVC
Формат/Информация : Advanced Video Codec
Профиль формата : High@L2.2
Параметр CABAC формата : Да
Параметр ReFrames формата : 9 кадров
Идентификатор кодека : avc1
Идентификатор кодека/Информация : Advanced Video Coding
Продолжительность : 48 м.
Битрейт : 580 Кбит/сек
Максимальный битрейт : 2906 Кбит/сек
Ширина : 640 пикселей
Высота : 320 пикселей
Соотношение сторон : 2,000
Режим частоты кадров : Постоянный
Частота кадров : 23,976 кадра/сек
Цветовое пространство : YUV
Субдискретизация насыщенности : 4:2:0
Битовая глубина : 8 бит
Тип развёртки : Прогрессивная
Бит/(Пиксели*Кадры) : 0.118
Размер потока : 201 Мбайт (81%)
Библиотека кодирования : x264 core 125 r2200 999b753
Настройки программы : cabac=1 / ref=9 / deblock=1:-1:-1 / analyse=0x3:0x133 / me=umh / subme=8 / psy=1 / psy_rd=1.00:0.10 / mixed_ref=1 / me_range=24 / chroma_me=1 / trellis=2 / 8x8dct=1 / cqm=0 / deadzone=21,11 / fast_pskip=0 / chroma_qp_offset=-3 / threads=6 / lookahead_threads=1 / sliced_threads=0 / nr=0 / decimate=1 / interlaced=0 / bluray_compat=0 / constrained_intra=0 / bframes=8 / b_pyramid=2 / b_adapt=2 / b_bias=0 / direct=3 / weightb=1 / open_gop=0 / weightp=2 / keyint=250 / keyint_min=23 / scenecut=40 / intra_refresh=0 / rc_lookahead=50 / rc=2pass / mbtree=1 / bitrate=580 / ratetol=1.0 / qcomp=0.60 / qpmin=0 / qpmax=69 / qpstep=4 / cplxblur=20.0 / qblur=0.5 / ip_ratio=1.40 / aq=1:1.00
Дата кодирования : UTC 2021-10-03 10:38:24
Дата пометки : UTC 2021-10-03 10:38:29

Аудио
Идентификатор : 2
Формат : AAC
Формат/Информация : Advanced Audio Codec
Профиль формата : LC
Идентификатор кодека : 40
Продолжительность : 48 м.
Вид битрейта : Переменный
Битрейт : 128 Кбит/сек
Максимальный битрейт : 137 Кбит/сек
Каналы : 2 канала
Расположение каналов : Front: L R
Частота : 48,0 КГц
Метод сжатия : С потерями
Размер потока : 44,4 Мбайт (18%)
Дата кодирования : UTC 2021-10-03 10:38:28
Дата пометки : UTC 2021-10-03 10:38:29
piratbit.org



Скачать Алиса в Пограничье через торрент https://i115.fastpic.org/big/2021/1003/96/1653f86d3e5f3807282cab597fb7c796.jpg Скачать, смотреть онлайн Алиса в Пограничье бесплантно в хорошем качестве Описание: Будьте осторожны со своими желаниями — они имеют свойство сбываться. Трем друзьям из Токио пришлось убедиться в этом на ... 10 10 4
Торрент: Зарегистрирован [2021-10-03 16:02] · скачан: 13 раз
Статус: √ проверено
Размер: 1.91 GB
Как cкачать? Как скачать Алиса в Пограничье через торрент | UTorrent

% Раздел Тема Автор DL S | L
R.G.Resident - Сериалы, Видео [ 1.5 GB ] Алиса в Пограничье / Alice in Borderland / Сезон: 1 / Серии: 1-8 из 8 [2020 WEB-DLRip на КПК] MVO Cтрана Скачать
3 | 0
Зарубежные сериалы [ 5.06 GB ] Алиса в Пограничье / Imawa no Kuni no Arisu / Alice in Borderland / Сезон: 1 / Серии: 1-8 из 8 [2020 WEB-DLRip-AVC] MVO [NewStudio] GEKADOL Скачать
4 | 0
Зарубежные сериалы [ 14.26 GB ] Алиса в Пограничье / Imawa no Kuni no Arisu / Alice in Borderland / Сезон: 1 / Серии: 1-8 из 8 [2020 WEB-DL 1080p] MVO [NewStudio] bober100 Скачать
2 | 0
Зарубежные сериалы [ 8.29 GB ] Алиса в Пограничье / Imawa no Kuni no Arisu / Alice in Borderland / Сезон: 1 / Серии: 1-8 из 8 [2020 WEB-DL 720p] MVO [Jaskier] bober100 Скачать
1 | 0
Зарубежные сериалы [ 4.46 GB ] Алиса в Пограничье / Imawa no Kuni no Arisu / Alice in Borderland / Сезон: 1 / Серии: 1-8 из 8 [2020 WEB-DLRip] MVO [Jaskier] bober100 Скачать
1 | 0
Зарубежные сериалы [ 14.18 GB ] Алиса в Пограничье / Imawa no Kuni no Arisu / Alice in Borderland / Сезон: 1 / Серии: 1-8 из 8 [2020 WEB-DL 1080p] MVO [Jaskier] bober100 Скачать
1 | 0
Зарубежные сериалы [ 10.06 GB ] Алиса в Пограничье / Imawa no Kuni no Arisu / Alice in Borderland / Сезон: 1 / Серии: 1-5 из 8 [2020 WEB-DL 720p] 3xMVO [LostFilm NewStudio Jaskier] bober100 Скачать
1 | 0

28-11-2019 20:33  

Отключить всю рекламу на сайте

    Дорогой пользователь! Огромная просьба, поблагодарите релизера, оцените раздачу и оставьте свои комментарий, если Вы скачали Алиса в Пограничье через торрент бесплатно!
    Комментировать посты могут только пользователи прошедшие не сложную регистрацию
    Показать сообщения:    

    Алиса в Пограничье через торрент
    Скачать бесплатно Алиса в Пограничье
    Алиса в Пограничье скачать торрент
    Алиса в Пограничье смотреть онлайн
    Cкачать фильм Алиса в Пограничье бесплатно
    Алиса в Пограничье скачать торрент в хорошем качестве
    Алиса в Пограничье смотреть онлайн бесплатно в хорошем качестве


    Вы не можете начинать темы
    Вы не можете отвечать на сообщения
    Вы не можете редактировать свои сообщения
    Вы не можете удалять свои сообщения
    Вы не можете голосовать в опросах
    Вы не можете прикреплять файлы к сообщениям
    Вы можете скачивать файлы