Anonymous, добрый день, присоединяйтесь к нам в Telegram!, здесь всегда актуальный адрес сайта, оперативная поддержка и многое другое!

>

5.6

iTunes

7.4

iTunes

5.7

MVO

1

7.7

1 сезон

6.8

iTunes

7.3

1 сезон

13

6.7

1 сезон

8.3

RePack

30

ULTIMATE

pack

9.9

Лицензия

ВАЖНО

ИГРА 18+

pack

7.3

RePack

MK11

7.7

RePack

jed

7.8

RePack

fifa19

8.5

RePack

RDR2

RePack

NEED FOR SPEED™ PAYBACK

4 сезон

9 сезон

Бесстыжие 9 сезон

Все сериалы

все сериалы на PB.wtf

RePack

FAR CRY 5

Anonymous, добрый день, мы катастрофически не успеваем собрать деньги на оплату серверов, помогите нам пожалуйста 5,10,15р., для нас важна любая помощь . В качестве благодарности мы отключим Вам всю рекламу на сайте (укажите свой ник в строку Ваше имя)!

×
  
Magnet ссылка

В клетке / Сезон: 2 / Серии: 1-2 из 10 (Сергей Пикалов) [2021 г., Драма, криминал, спорт, WEB-DLRip] piratbit.org

В клетке через торрент piratbit.org

Раздают: 4 [ 402 KB/s ] Качают: 3 [ 0 KB/s ]
Размер: 1.33 GB | Добавлен: 3 д. назад | Торрент скачан:17 раз
Смотреть онлайн В клетке | Скачать    Ребята, помогите собрать деньги на оплату серверов!!!

06-10-2021 23:16 В клетке Скачать торрент  

В клетке
Год выпуска: 2021
Страна: Россия
Студия: Team films, Okko Studios
Жанр:Драма, криминал, спорт
Продолжительность: ~ 00:50:00
Субтитры: Отсутствуют

Режиссер: Сергей Пикалов



В ролях: Павел Прилучный, Екатерина Маликова, Владимир Епифанцев, Артур Ваха, Алёна Михайлова, Роза Хайруллина, Вера Панфилова, Кай Алекс Гетц, Гела Месхи, Илья Глинников

Описание: Сиквел остросюжетного сериала о некогда успешном бойце MMA Сергее «Волчке» Евдокимове. В новый виток истории герой входит с травмой, полученной год назад, во время боя с собственным отцом «Доком». Травма руки не дает ему участвовать в профессиональных соревнованиях. Однако, в ходе определенных событий, он вынужден вернуться к подпольным боям без правил и опять войти ненавистную ему клетку.

Качество: WEB-DLRip
Формат: AVI
Видео кодек: XviD
Аудио кодек: AC3
Видео: 1650 Кбит/сек, 720*272 (2,647), в 25,000 кадров/сек, MPEG-4 Visual (XviD)
Аудио: 192 Кбит/сек, 48,0 КГц, 16 бит, 2 канала, AC-3 - (без цензуры, 18+). Внимание! Присутствует ненормативная лексика.
Общее
Полное имя : G:\V.kletke.s02.WEB-DLRip.25Kuzmich\V.kletke.s02e01.WEB-DLRip.25Kuzmich.avi
Формат : AVI
Формат/Информация : Audio Video Interleave
Размер файла : 674 Мбайт
Продолжительность : 50 м. 51 с.
Общий поток : 1852 Кбит/сек
Программа кодирования : VirtualDubMod 1.5.10.3 (build 2550/release)
Библиотека кодирования : VirtualDubMod build 2550/release

Видео
Идентификатор : 0
Формат : MPEG-4 Visual
Профиль формата : Advanced Simple@L5
Настройки формата : BVOP1
Параметр BVOP формата : 1
Параметр QPel формата : Нет
Параметр GMC формата : Без точки перехода
Параметр матрицы формата : Default (MPEG)
Идентификатор кодека : XVID
Идентификатор кодека/Подсказка : XviD
Продолжительность : 50 м. 51 с.
Битрейт : 1650 Кбит/сек
Ширина : 720 пикселей
Высота : 272 пикселя
Соотношение сторон : 2,647
Частота кадров : 25,000 кадров/сек
Цветовое пространство : YUV
Субдискретизация насыщенности : 4:2:0
Битовая глубина : 8 бит
Тип развёртки : Прогрессивная
Метод сжатия : С потерями
Бит/(Пиксели*Кадры) : 0.337
Размер потока : 600 Мбайт (89%)
Библиотека кодирования : XviD 73

Аудио
Идентификатор : 1
Формат : AC-3
Формат/Информация : Audio Coding 3
Коммерческое название : Dolby Digital
Идентификатор кодека : 2000
Продолжительность : 50 м. 51 с.
Вид битрейта : Постоянный
Битрейт : 192 Кбит/сек
Каналы : 6 каналов
ChannelLayout : L R C LFE Ls Rs
Частота : 48,0 КГц
Частота кадров : 31,250 кадров/сек (1536 SPF)
Битовая глубина : 16 бит
Метод сжатия : С потерями
Размер потока : 69,8 Мбайт (10%)
Выравнивание : Разделение по промежуткам
Продолжительность промежутка : 40 мс. (1,00 видеокадр)
Время предзагрузки промежутка : 500 мс.
ServiceKind/String : Complete Main
Внимание! Раздача ведётся путём добавления новых серий; при каждом добавлении создаётся новый торрент. Чтобы начать докачку новой серии, пользователям необходимо сделать следующее:
(1) остановить скачивание,
(2) удалить старый торрент у себя из клиента (старые серии удалять не надо),
(3) скачать новый торрент и запустить его у себя в клиенте вместо старого, при этом указать клиенту путь в старую папку куда и должно происходить скачивание новых серий.

Ваш клиент при этом должен произвести хеширование (проверку) старой папки (если не производит сам - помогите ему сделать это), и будет докачивать только те серии которых у вас ещё нет. Старые серии при этом не удаляются, а продолжают раздаваться!

Eсли вы уже удалили старые серии, то предотвратить повторную закачку старых серий можно, отжав галочку в соответствующих местах при запуске нового торрента. По возможности, желательно не удалять старые серии как можно дольше чтобы релизёр не столько продолжал раздавать старые серии, а смог сконцентрироваться на новых.


Скриншоты:
скриншот   скриншот   скриншот   скриншот   скриншот   скриншот   скриншот   
скриншот  
piratbit.org



Скачать В клетке через торрент https://pic1.kartinco.top/new/img/2021-10/07/usrx85wqgcaxgbyq3tbq78gb4.jpg Скачать, смотреть онлайн В клетке бесплантно в хорошем качестве Описание: Сиквел остросюжетного сериала о некогда успешном бойце MMA Сергее «Волчке» Евдокимове. В новый виток истории герой входит с ... 8.2 10 5
Торрент: Зарегистрирован [2021-10-14 01:15] · скачан: 17 раз
Статус: √ проверено
Размер: 1.33 GB
Как cкачать? Как скачать В клетке через торрент | UTorrent

% Раздел Тема Автор DL S | L
Наши сериалы [ 3.6 GB ] В клетке / Сезон: 2 / Серии: 1-2 из 10 [2021 WEB-DL 1080p] bober100 Скачать
7 | 4

28-11-2019 20:33  

Отключить всю рекламу на сайте

    Дорогой пользователь! Огромная просьба, поблагодарите релизера, оцените раздачу и оставьте свои комментарий, если Вы скачали В клетке через торрент бесплатно!
    Комментировать посты могут только пользователи прошедшие не сложную регистрацию
    Показать сообщения:    

    В клетке через торрент
    Скачать бесплатно В клетке
    В клетке скачать торрент
    В клетке смотреть онлайн
    Cкачать фильм В клетке бесплатно
    В клетке скачать торрент в хорошем качестве
    В клетке смотреть онлайн бесплатно в хорошем качестве


    Вы не можете начинать темы
    Вы не можете отвечать на сообщения
    Вы не можете редактировать свои сообщения
    Вы не можете удалять свои сообщения
    Вы не можете голосовать в опросах
    Вы не можете прикреплять файлы к сообщениям
    Вы можете скачивать файлы