Anonymous, добрый день, присоединяйтесь к нам в Telegram!, здесь всегда актуальный адрес сайта, оперативная поддержка и многое другое!

>

5.5

iTunes

7.4

iTunes

7.9

iTunes

1

7.7

1 сезон

6.8

iTunes

7.3

1 сезон

13

6.7

1 сезон

8.3

RePack

30

ULTIMATE

pack

9.9

Лицензия

ВАЖНО

ИГРА 18+

pack

7.3

RePack

MK11

7.7

RePack

jed

7.8

RePack

fifa19

8.5

RePack

RDR2

RePack

NEED FOR SPEED™ PAYBACK

4 сезон

9 сезон

Бесстыжие 9 сезон

Все сериалы

все сериалы на PB.wtf

RePack

FAR CRY 5

Anonymous, добрый день, мы катастрофически не успеваем собрать деньги на оплату серверов, помогите нам пожалуйста 5,10,15р., для нас важна любая помощь . В качестве благодарности мы отключим Вам всю рекламу на сайте (укажите свой ник в строку Ваше имя)!

×
  
Magnet ссылка

Что скрывает вода / What Lies Below (Брэйден Р. Дуэммлер) [2020, Триллер, ужасы, HDRip-AVC] DUB [iTunes] от MediaBit piratbit.org

Что скрывает вода через торрент piratbit.org

Раздают: 1 [ 0 KB/s ]
Размер: 1.8 GB | Добавлен: 18 д. назад | Торрент скачан:33 раза
Смотреть онлайн Что скрывает вода | Скачать    Ребята, помогите собрать деньги на оплату серверов!!!

08-10-2021 17:57 Что скрывает вода Скачать торрент  


Что скрывает вода / What Lies Below
Информация о фильме:
Название: Что скрывает вода
Оригинальное название: What Lies Below
Год выхода: 2020
Жанр: Триллер, ужасы
Режиссер: Брэйден Р. Дуэммлер
В ролях: Эма Хорват, Мена Сувари, Трей Такер, Хаскири Веласкес, Олэн Монтгомери, Трой Ивата, Дэнни Корбо, ЭйприлЭнн Дэйс

Описание: Мать-одиночка встречает 16-летнюю дочь Либи после летнего лагеря, и обе отправляются в лесной дом у озера, где девушку ждёт сюрприз: мама встречается с мужчиной и собирается за него замуж. Потенциальный отчим — высокий красавец, да ещё и учёный — сначала нравится любознательной Либи, и даже очень, но вскоре девушка замечает за ним странности.



Страна: США
Студия: DRF Productions
Продолжительность: 01:27:59
Перевод: Дублированный - iTunes



Информация о файле:
Кодек: AVC
Формат: MKV
Качество: HDRip-AVC
Видео: MPEG-4 AVC, 1024x554, 23.976 fps, 2100 kbps
Аудио RU: AC3, 6 ch, 48 kHz, 384 kbps
Аудио EN: AC3, 6 ch, 48 kHz, 448 kbps
Субтитры: Русские (full, SDH), английские

x264 info: frame I:955 Avg QP:13.27 size: 80135
x264 info: frame P:25392 Avg QP:17.09 size: 24676
x264 info: frame B:100228 Avg QP:20.04 size: 6795
x264 info: consecutive B-frames: 1.6% 2.2% 6.0% 14.1% 12.9% 52.3% 3.8% 1.9% 1.2% 2.0% 0.2% 0.4% 1.3%
General
Unique ID : 228068254739814590505554683349375415555 (0xAB94591E2DFBCA55CBF53AB8B15C7503)
Complete name : D:\uTorrent\Рипы wolf1245\What Lies Below.2020.DUB.iTunes.HDRip-AVC.[wolf1245.MediaBit].mkv
Format : Matroska
Format version : Version 4
File size : 1.80 GiB
Duration : 1 h 27 min
Overall bit rate : 2 931 kb/s
Movie name : What Lies Below.2020.DUB.iTunes.HDRip-AVC.[wolf1245.MediaBit]
Encoded date : UTC 2021-10-08 17:50:49
Writing application : mkvmerge v61.0.0 ('So') 64-bit
Writing library : libebml v1.4.2 + libmatroska v1.6.4

Video
ID : 1
Format : AVC
Format/Info : Advanced Video Codec
Format profile : High@L4.1
Format settings : CABAC / 14 Ref Frames
Format settings, CABAC : Yes
Format settings, Reference frames : 14 frames
Codec ID : V_MPEG4/ISO/AVC
Duration : 1 h 27 min
Bit rate : 2 100 kb/s
Width : 1 024 pixels
Height : 554 pixels
Display aspect ratio : 1.85:1
Frame rate mode : Constant
Frame rate : 23.976 (24000/1001) FPS
Color space : YUV
Chroma subsampling : 4:2:0
Bit depth : 8 bits
Scan type : Progressive
Bits/(Pixel*Frame) : 0.154
Stream size : 1.29 GiB (72%)
Title : [wolf1245.MediaBit]
Writing library : x264 core 161 r3020 d198931
Encoding settings : cabac=1 / ref=14 / deblock=1:-3:-3 / analyse=0x3:0x133 / me=umh / subme=11 / psy=1 / psy_rd=1.00:0.07 / mixed_ref=1 / me_range=48 / chroma_me=1 / trellis=2 / 8x8dct=1 / cqm=0 / deadzone=21,11 / fast_pskip=1 / chroma_qp_offset=-3 / threads=10 / lookahead_threads=2 / sliced_threads=0 / nr=0 / decimate=1 / interlaced=0 / bluray_compat=0 / constrained_intra=0 / bframes=12 / b_pyramid=2 / b_adapt=2 / b_bias=0 / direct=3 / weightb=1 / open_gop=0 / weightp=2 / keyint=240 / keyint_min=24 / scenecut=40 / intra_refresh=0 / rc_lookahead=60 / rc=2pass / mbtree=1 / bitrate=2100 / ratetol=1.0 / qcomp=0.60 / qpmin=0 / qpmax=69 / qpstep=4 / cplxblur=20.0 / qblur=0.5 / vbv_maxrate=50000 / vbv_bufsize=62500 / nal_hrd=none / filler=0 / ip_ratio=1.40 / aq=3:0.80
Language : English
Default : Yes
Forced : No

Audio #1
ID : 2
Format : AC-3
Format/Info : Audio Coding 3
Commercial name : Dolby Digital
Codec ID : A_AC3
Duration : 1 h 27 min
Bit rate mode : Constant
Bit rate : 384 kb/s
Channel(s) : 6 channels
Channel layout : L R C LFE Ls Rs
Sampling rate : 48.0 kHz
Frame rate : 31.250 FPS (1536 SPF)
Compression mode : Lossy
Stream size : 242 MiB (13%)
Title : iTunes | DUB
Language : Russian
Service kind : Complete Main
Default : Yes
Forced : No

Audio #2
ID : 3
Format : AC-3
Format/Info : Audio Coding 3
Commercial name : Dolby Digital
Codec ID : A_AC3
Duration : 1 h 27 min
Bit rate mode : Constant
Bit rate : 448 kb/s
Channel(s) : 6 channels
Channel layout : L R C LFE Ls Rs
Sampling rate : 48.0 kHz
Frame rate : 31.250 FPS (1536 SPF)
Compression mode : Lossy
Stream size : 282 MiB (15%)
Title : Original
Language : English
Service kind : Complete Main
Default : No
Forced : No

Text #1
ID : 4
Format : UTF-8
Codec ID : S_TEXT/UTF8
Codec ID/Info : UTF-8 Plain Text
Duration : 1 h 21 min
Bit rate : 47 b/s
Count of elements : 793
Stream size : 28.6 KiB (0%)
Title : Full
Language : Russian
Default : No
Forced : No

Text #2
ID : 5
Format : UTF-8
Codec ID : S_TEXT/UTF8
Codec ID/Info : UTF-8 Plain Text
Duration : 1 h 24 min
Bit rate : 58 b/s
Count of elements : 1009
Stream size : 36.0 KiB (0%)
Title : SDH
Language : Russian
Default : No
Forced : No

Text #3
ID : 6
Format : UTF-8
Codec ID : S_TEXT/UTF8
Codec ID/Info : UTF-8 Plain Text
Duration : 1 h 27 min
Bit rate : 42 b/s
Count of elements : 1183
Stream size : 27.4 KiB (0%)
Title : SDH
Language : English
Default : No
Forced : No

Menu
00:00:00.000 : :Chapter 1
00:09:29.152 : :Chapter 2
00:17:21.082 : :Chapter 3
00:24:54.910 : :Chapter 4
00:35:04.728 : :Chapter 5
00:41:06.422 : :Chapter 6
00:49:11.407 : :Chapter 7
00:57:51.718 : :Chapter 8
01:06:16.181 : :Chapter 9
01:13:46.422 : :Chapter 10
01:20:37.499 : :Chapter 11
01:24:38.824 : :Chapter 12
Релиз от: &

Автор релиза:
piratbit.org



Скачать Что скрывает вода через торрент https://i2.imageban.ru/out/2021/10/08/aac6c54796260ab1eed506b2125ff68b.jpg Скачать, смотреть онлайн Что скрывает вода бесплантно в хорошем качестве Описание: Мать-одиночка встречает 16-летнюю дочь Либи после летнего лагеря, и обе отправляются в лесной дом у озера, где девушку ждёт ... 10 10 4
Торрент: Зарегистрирован [2021-10-08 17:57] · скачан: 33 раз
Статус: √ проверено
Размер: 1.8 GB
Как cкачать? Как скачать Что скрывает вода через торрент | UTorrent

28-11-2019 20:33  

Отключить всю рекламу на сайте

08-10-2021 19:05 Что скрывает вода Скачать торрент  

мало кому понравилсяpiratbit.org



    Дорогой пользователь! Огромная просьба, поблагодарите релизера, оцените раздачу и оставьте свои комментарий, если Вы скачали Что скрывает вода через торрент бесплатно!
    Комментировать посты могут только пользователи прошедшие не сложную регистрацию
    Показать сообщения:    

    Что скрывает вода через торрент
    Скачать бесплатно Что скрывает вода
    Что скрывает вода скачать торрент
    Что скрывает вода смотреть онлайн
    Cкачать фильм Что скрывает вода бесплатно
    Что скрывает вода скачать торрент в хорошем качестве
    Что скрывает вода смотреть онлайн бесплатно в хорошем качестве


    Вы не можете начинать темы
    Вы не можете отвечать на сообщения
    Вы не можете редактировать свои сообщения
    Вы не можете удалять свои сообщения
    Вы не можете голосовать в опросах
    Вы не можете прикреплять файлы к сообщениям
    Вы можете скачивать файлы