Достать ножи: Стеклянная луковица

MVO

Добыча

Дубляж

Уэнсдэй

1 сезон

Тор

Дубляж

13 клиническая

1 сезон

Жестокая ночь

MVO

Одни из нас

1 сезон

Deluxe

pack

Рекомендуем

30

Пиратка

ВАЖНО

ВАЖНО

Ghostwire

Пиратка

jed

RePack

nioh2

RePack

RDR2

RePack

NEED FOR SPEED™ PAYBACK

RePack

скачать торрент

Кинопоиск HD

Острые козырьки 6 сезон

6 сезон

FAR CRY 6

RePack

скачать торрент

Лицензия

скачать торрент

MVO

1

1 сезон

скачать торрент

1 сезон

скачать торрент

Лицензия

  

Путь Карлито / Carlito's Way (Брайан Де Пальма) [1993, Триллер, драма, криминал, UHD BDRemux 2160p] 2xMVO [Лицензия R5, Позитив-мультимедия]

Путь Карлито через торрент piratbit.org

Размер: 72.02 GB | Добавлен: 1 год 3 мес. назад | Торрент скачан:27 раз
Смотреть онлайн | Скачать | Поддержите нас   

09-10-2021 17:23 Путь Карлито Скачать торрент  

Путь Карлито | Carlito's Way
Год выпуска: 1993
Страна: США
Студия: Bregman/Baer Productions, Epic Productions, Universal Pictures
Жанр: Триллер, драма, криминал
Продолжительность: 02:24:03
Перевод(ы):
#1: Профессиональный многоголосый | Лицензия R5
#2: Профессиональный многоголосый | Позитив-мультимедия
Субтитры: Русские (3 x full), английские

Режиссер: Брайан Де Пальма

rating

В ролях: Аль Пачино, Шон Пенн, Пенелопа Энн Миллер, Джон Легуизамо, Ингрид Роджерс, Луис Гусман, Джеймс Ребхорн, Джозеф Сираво, Вигго Мортенсен, Ричард Форонджи

Описание: 70-е годы. Крупный наркоделец Карлито Бриганте вышел из тюрьмы, где отбыл пять лет. Теперь, возвращаясь в испанский квартал Нью-Йорка к любимой женщине, он хочет все бросить и начать честную жизнь. Однако криминальное прошлое и просьба близкого друга, адвоката Клейнфилда, ввязавшегося в опасную авантюру, неудержимо тянут Карлито в пучину гибели…

Качество: UHD BDRemux 2160p
Формат: MKV

Видео: 3840x2160 at 23.976 fps, MPEG-H HEVC HDR Video, 66.5 kbps avg
Аудио #01: 48 kHz, DTS, 5.1, 754 Kbps | R5 | RUS |
Аудио #02: 48 kHz, AC3, 5.1, 448 Kbps | R5 | RUS |
Аудио #03: 48 kHz, AC3, 5.1, 448 Kbps | Позитив Мультимедиа | RUS |
Аудио #04: 48 kHz, DTS:X, 7.1, 3452 Kbps | Оригинал | ENG |
скриншот  скриншот  скриншот  

скриншот  скриншот  скриншот  

General
Unique ID : 103432442030415839601756457924123898557 (0x4DD05D1D96DEE655454B8CD7A61332BD)
Complete name : E:VideoCarlito.s.Way.1993.BDREMUX.2160p.HDR.seleZen.mkv
Format : Matroska
Format version : Version 4
File size : 72.0 GiB
Duration : 2 h 24 min
Overall bit rate mode : Variable
Overall bit rate : 71.5 Mb/s
Movie name : Carlito's Way 1993 from seleZen
Encoded date : UTC 2021-10-08 09:26:12
Writing application : mkvmerge v59.0.0 ('Shining Star') 64-bit
Writing library : libebml v1.4.2 + libmatroska v1.6.4

Video
ID : 1
Format : HEVC
Format/Info : High Efficiency Video Coding
Format profile : Main 10@L5.1@High
HDR format : SMPTE ST 2094 App 4, Version 1, HDR10+ Profile B compatible
Codec ID : V_MPEGH/ISO/HEVC
Duration : 2 h 24 min
Bit rate : 66.5 Mb/s
Width : 3 840 pixels
Height : 2 160 pixels
Display aspect ratio : 16:9
Frame rate mode : Constant
Frame rate : 23.976 (24000/1001) FPS
Color space : YUV
Chroma subsampling : 4:2:0 (Type 2)
Bit depth : 10 bits
Bits/(Pixel*Frame) : 0.334
Stream size : 66.9 GiB (93%)
Writing library : ATEME Titan File 3.9.6 (4.9.6.2)
Language : English
Default : Yes
Forced : No
Color range : Limited
Color primaries : BT.2020
Transfer characteristics : PQ
Matrix coefficients : BT.2020 non-constant
Mastering display color primaries : Display P3
Mastering display luminance : min: 0.0050 cd/m2, max: 1000 cd/m2
Maximum Content Light Level : 933 cd/m2
Maximum Frame-Average Light Level : 84 cd/m2

Audio #1
ID : 2
Format : DTS
Format/Info : Digital Theater Systems
Codec ID : A_DTS
Duration : 2 h 24 min
Bit rate mode : Constant
Bit rate : 754 kb/s
Channel(s) : 6 channels
Channel layout : C L R Ls Rs LFE
Sampling rate : 48.0 kHz
Frame rate : 93.750 FPS (512 SPF)
Bit depth : 24 bits
Compression mode : Lossy
Stream size : 778 MiB (1%)
Title : MVO [R5]
Language : Russian
Default : Yes
Forced : Yes

Audio #2
ID : 3
Format : AC-3
Format/Info : Audio Coding 3
Commercial name : Dolby Digital
Codec ID : A_AC3
Duration : 2 h 24 min
Bit rate mode : Constant
Bit rate : 448 kb/s
Channel(s) : 6 channels
Channel layout : L R C LFE Ls Rs
Sampling rate : 48.0 kHz
Frame rate : 31.250 FPS (1536 SPF)
Compression mode : Lossy
Stream size : 462 MiB (1%)
Title : MVO [R5]
Language : Russian
Service kind : Complete Main
Default : No
Forced : No

Audio #3
ID : 4
Format : AC-3
Format/Info : Audio Coding 3
Commercial name : Dolby Digital
Codec ID : A_AC3
Duration : 2 h 24 min
Bit rate mode : Constant
Bit rate : 448 kb/s
Channel(s) : 6 channels
Channel layout : L R C LFE Ls Rs
Sampling rate : 48.0 kHz
Frame rate : 31.250 FPS (1536 SPF)
Compression mode : Lossy
Stream size : 462 MiB (1%)
Title : MVO [Позитив-мультимедия]
Language : Russian
Service kind : Complete Main
Default : No
Forced : No

Audio #4
ID : 5
Format : DTS XLL X
Format/Info : Digital Theater Systems
Commercial name : DTS-HD Master Audio
Codec ID : A_DTS
Duration : 2 h 24 min
Bit rate mode : Variable
Bit rate : 3 452 kb/s
Channel(s) : 8 channels
Channel(s)_Original : Object Based
ChannelLayout_Original : Object Based
Sampling rate : 48.0 kHz
Frame rate : 93.750 FPS (512 SPF)
Bit depth : 24 bits
Stream size : 3.47 GiB (5%)
Title : Original
Language : English
Default : No
Forced : No

Text #1
ID : 6
Format : UTF-8
Codec ID : S_TEXT/UTF8
Codec ID/Info : UTF-8 Plain Text
Duration : 2 h 17 min
Bit rate : 98 b/s
Count of elements : 1725
Stream size : 99.5 KiB (0%)
Title : Full [R5]
Language : Russian
Default : No
Forced : No

Text #2
ID : 7
Format : UTF-8
Codec ID : S_TEXT/UTF8
Codec ID/Info : UTF-8 Plain Text
Duration : 2 h 18 min
Bit rate : 96 b/s
Count of elements : 1764
Stream size : 98.2 KiB (0%)
Title : Full [Uncle KiLler]
Language : Russian
Default : No
Forced : No

Text #3
ID : 8
Format : UTF-8
Codec ID : S_TEXT/UTF8
Codec ID/Info : UTF-8 Plain Text
Duration : 2 h 15 min
Bit rate : 93 b/s
Count of elements : 1630
Stream size : 93.0 KiB (0%)
Language : Russian
Default : No
Forced : No

Text #4
ID : 9
Format : UTF-8
Codec ID : S_TEXT/UTF8
Codec ID/Info : UTF-8 Plain Text
Duration : 2 h 15 min
Bit rate : 60 b/s
Count of elements : 1557
Stream size : 59.9 KiB (0%)
Language : English
Default : No
Forced : No

Menu
00:00:00.000 : Глава 01
00:05:03.470 : Глава 02
00:17:43.312 : Глава 03
00:27:41.535 : Глава 04
00:32:02.671 : Глава 05
00:36:36.528 : Глава 06
00:45:26.557 : Глава 07
00:50:38.619 : Глава 08
00:58:40.517 : Глава 09
01:03:34.352 : Глава 10
01:11:44.258 : Глава 11
01:17:28.227 : Глава 12
01:24:47.040 : Глава 13
01:33:48.748 : Глава 14
01:45:23.275 : Глава 15
01:52:32.245 : Глава 16
01:57:40.637 : Глава 17
02:03:31.362 : Глава 18
02:14:01.367 : Глава 19
02:19:07.297 : Глава 20




Скачать Путь Карлито через торрент https://st-kp-yandex-net.translate.goog/images/film_iphone/iphone360_4275.jpg Скачать, смотреть онлайн Путь Карлито бесплантно в хорошем качестве Описание: 70-е годы. Крупный наркоделец Карлито Бриганте вышел из тюрьмы, где отбыл пять лет. Теперь, возвращаясь в испанский квартал ... 9 10 5
Торрент: Зарегистрирован [2021-10-09 17:24] · скачан: 27 раз
Статус: √ проверено
Размер: 72.02 GB
Как cкачать? Как скачать Путь Карлито через торрент | UTorrent

% Раздел Тема Автор DL S | L
Фильмы [HD 720p, 1080p] (Хороший звук DUB, MVO) [ 13.7 GB ] Путь Карлито / Carlito's Way | MVO + 2x DVO + 3x AVO | 720p от KORSAR filbi1976 Скачать
1 | 0
Фильмы [HD 720p, 1080p] (Хороший звук DUB, MVO) [ 11.88 GB ] Путь Карлито / Carlito's Way | MVO + 2xDVO + 6xAVO + Original + Sub | 720p от _denis_100 / NNNB _denis_100 Скачать
1 | 0
Фильмы (Blu-ray, BD-Remux, HDDVD) [ 43.69 GB ] Путь Карлито / Carlito's Way | | 1080p от HDClub Ворон Скачать
1 | 0
Фильмы до 2000 г. [ 2.18 GB ] Путь Карлито / Carlito's Way | MVO | BDRip sokol_ok Скачать
2 | 0
Фильмы до 2000 г. [ 2.19 GB ] Путь Карлито / Carlito's Way | | HDRip POCIK Скачать
1 | 0
Фильмы до 2000 г. [ 1.45 GB ] Путь Карлито / Carlito's Way | | HDRip, лицензия jingles Скачать
1 | 0

28-11-2019 20:33  


Отключить вcю реклaмy на сайте, в т.ч. и в плеере онлайн просмотра!

    Дорогой пользователь! Огромная просьба, поблагодарите релизера, оцените раздачу и оставьте свои комментарий, если Вы скачали Путь Карлито через торрент бесплатно!!
    Комментировать посты могут только пользователи прошедшие не сложную регистрацию
    Показать сообщения:    


    Путь Карлито через торрент
    Скачать бесплатно Путь Карлито
    Путь Карлито скачать торрент
    Путь Карлито смотреть онлайн
    Cкачать фильм Путь Карлито бесплатно
    Путь Карлито скачать торрент в хорошем качестве
    Путь Карлито смотреть онлайн бесплатно в хорошем качестве
    Вы не можете начинать темы
    Вы не можете отвечать на сообщения
    Вы не можете редактировать свои сообщения
    Вы не можете удалять свои сообщения
    Вы не можете голосовать в опросах
    Вы не можете прикреплять файлы к сообщениям
    Вы можете скачивать файлы
    Путь Карлито / Carlito's Way [1993, Триллер, драма, криминал, UHD BDRemux 2160p] 2xMVO [Лицензия R5, Позитив-мультимедия] смотреть онлайн, скачать торрент picoco.icu