Anonymous, добрый день, присоединяйтесь к нам в Telegram!, здесь всегда актуальный адрес сайта, оперативная поддержка и многое другое!

>

5.5

iTunes

7.4

iTunes

7.9

iTunes

1

7.7

1 сезон

6.8

iTunes

7.3

1 сезон

13

6.7

1 сезон

8.3

RePack

30

Deluxe

pack

9.9

Лицензия

ВАЖНО

ИГРА 18+

pack

7.3

RePack

MK11

7.7

RePack

jed

7.8

RePack

fifa19

8.5

RePack

RDR2

RePack

NEED FOR SPEED™ PAYBACK

4 сезон

9 сезон

Бесстыжие 9 сезон

Все сериалы

все сериалы на PB.wtf

RePack

FAR CRY 5

Anonymous, добрый день, мы катастрофически не успеваем собрать деньги на оплату серверов, помогите нам пожалуйста 5,10,15р., для нас важна любая помощь . В качестве благодарности мы отключим Вам всю рекламу на сайте (укажите свой ник в строку Ваше имя)!

×
  
Magnet ссылка

Пороховой коктейль / Gunpowder Milkshake (Навот Папушадо) [2021, Боевик, триллер, приключения, BDRip 1080p] DUB (rus, ukr) [iTunes] +MVO [HDRezka Studio] piratbit.org

Пороховой коктейль через торрент piratbit.org

Раздают: 9 [ 131 KB/s ] Качают: 1 [ 0 KB/s ]
Размер: 9.49 GB | Добавлен: 17 д. назад | Торрент скачан:117 раз
Смотреть онлайн Пороховой коктейль | Скачать    Ребята, помогите собрать деньги на оплату серверов!!!

09-10-2021 18:59 Пороховой коктейль Скачать торрент  

Пороховой коктейль | Gunpowder Milkshake
Год выпуска: 2021
Страна: Франция, Германия, США
Студия: СинеЛаб СаундМикс, The Picture Company, Studio Babelsberg, Studio Canal
Жанр: Боевик, триллер, приключения
Продолжительность: 01:54:44
Перевод:
Дублированный | iTunes
Профессиональный (многоголосый, закадровый) | HDRezka Studio
Субтитры: , украинские (форсированные), английские (полные, SDH)

Режиссер: Навот Папушадо

rating

В ролях: Карен Гиллан, Лина Хиди, Карла Гуджино, Мишель Йео, Анджела Бассетт, Пол Джаматти, Джо Бобин, Фрейя Аллан, Эд Бирч, Ралф Айнесон

Описание: Быть киллером — весело и просто. Особенно для Сэм, которая от матери унаследовала талант к заказным убийствам. Но когда девушке приходится пойти наперекор собственному боссу, она становится мишенью целой армии головорезов. К счастью, мама и её бывшие напарницы готовы помочь угостить недоброжелателей своим фирменным «пороховым коктейлем»

Качество: BDRip 1080p
Формат: MKV

Видео: 1920x800 (2.40:1), 24 fps, MPEG-4 AVC ~ 10 000 Kbps avg, 0.271 bit/pixel
Аудио: AC3, 48 kHz, 6 ch, ~384.00 kbps avg | русский | iTunes
Аудио: AC3, 48 kHz, 6 ch, ~448.00 kbps avg | русский | HDRezka Studio |
Аудио: AC3, 48 kHz, 6 ch, ~384.00 kbps avg | украинский | DUB | iTunes
Аудио: AC3, 48 kHz, 6 ch, ~640.00 kbps avg | английский |
скриншот  скриншот  скриншот  скриншот  скриншот  

Общее
Уникальный идентификатор : 236312104309796247025699985672543338396 (0xB1C80E4854003B15BCCD953678F2FF9C)
Полное имя : Gunpowder.Milkshake.2021.1080p.BluRay.DD.5.1.x264.MegaPeer.mkv
Формат : Matroska
Версия формата : Version 4
Размер файла : 9,49 Гбайт
Продолжительность : 1 ч. 54 м.
Общий поток : 11,8 Мбит/сек
Название фильма : Пороховой коктейль / Gunpowder Milkshake (2021) от MegaPeer
Дата кодирования : UTC 2021-10-09 17:36:48
Программа кодирования : mkvmerge v15.0.0 ('Duel with the Devil') 64-bit
Библиотека кодирования : libebml v1.3.5 + libmatroska v1.4.5
Обложка : Yes
Attachments : cover.jpg

Видео
Идентификатор : 1
Формат : AVC
Формат/Информация : Advanced Video Codec
Профиль формата : High@L4.1
Настройки формата : CABAC / 4 Ref Frames
Параметр CABAC формата : Да
Параметр RefFrames формата : 4 кадра
Идентификатор кодека : V_MPEG4/ISO/AVC
Продолжительность : 1 ч. 54 м.
Битрейт : 10 000 Кбит/сек
Ширина : 1 920 пикселей
Высота : 800 пикселей
Соотношение сторон : 2,40:1
Режим частоты кадров : Постоянный
Частота кадров : 24,000 кадра/сек
Цветовое пространство : YUV
Субдискретизация насыщенности : 4:2:0
Битовая глубина : 8 бит
Тип развёртки : Прогрессивная
Бит/(Пиксели*Кадры) : 0.271
Размер потока : 8,00 Гбайт (84%)
Заголовок : stillet@MegaPeer
Библиотека кодирования : x264 core 161 r3018 db0d417
Настройки программы : cabac=1 / ref=4 / deblock=1:-2:-2 / analyse=0x3:0x113 / me=umh / subme=11 / psy=1 / psy_rd=1.05:0.03 / mixed_ref=1 / me_range=48 / chroma_me=1 / trellis=2 / 8x8dct=1 / cqm=0 / deadzone=21,11 / fast_pskip=0 / chroma_qp_offset=-3 / threads=24 / lookahead_threads=6 / sliced_threads=0 / nr=0 / decimate=0 / interlaced=0 / bluray_compat=0 / constrained_intra=0 / bframes=11 / b_pyramid=2 / b_adapt=2 / b_bias=0 / direct=3 / weightb=1 / open_gop=0 / weightp=2 / keyint=240 / keyint_min=24 / scenecut=40 / intra_refresh=0 / rc_lookahead=40 / rc=2pass / mbtree=0 / bitrate=10000 / ratetol=1.0 / qcomp=0.60 / qpmin=0 / qpmax=69 / qpstep=4 / cplxblur=20.0 / qblur=0.5 / vbv_maxrate=50000 / vbv_bufsize=62500 / nal_hrd=none / filler=0 / ip_ratio=1.40 / pb_ratio=1.30 / aq=1:1.10
Язык : Italian
Default : Да
Forced : Нет

Аудио #1
Идентификатор : 2
Формат : AC-3
Формат/Информация : Audio Coding 3
Коммерческое название : Dolby Digital
Идентификатор кодека : A_AC3
Продолжительность : 1 ч. 54 м.
Вид битрейта : Постоянный
Битрейт : 384 Кбит/сек
Каналы : 6 каналов
Channel layout : L R C LFE Ls Rs
Частота : 48,0 КГц
Частота кадров : 31,250 кадров/сек (1536 SPF)
Метод сжатия : С потерями
Размер потока : 315 Мбайт (3%)
Заголовок : DUB | iTunes
Язык : Russian
Service kind : Complete Main
Default : Да
Forced : Нет

Аудио #2
Идентификатор : 3
Формат : AC-3
Формат/Информация : Audio Coding 3
Коммерческое название : Dolby Digital
Идентификатор кодека : A_AC3
Продолжительность : 1 ч. 54 м.
Вид битрейта : Постоянный
Битрейт : 448 Кбит/сек
Каналы : 6 каналов
Channel layout : L R C LFE Ls Rs
Частота : 48,0 КГц
Частота кадров : 31,250 кадров/сек (1536 SPF)
Метод сжатия : С потерями
Размер потока : 368 Мбайт (4%)
Заголовок : MVO | HDRezka Studio
Язык : Russian
Service kind : Complete Main
Default : Нет
Forced : Нет

Аудио #3
Идентификатор : 4
Формат : AC-3
Формат/Информация : Audio Coding 3
Коммерческое название : Dolby Digital
Идентификатор кодека : A_AC3
Продолжительность : 1 ч. 54 м.
Вид битрейта : Постоянный
Битрейт : 384 Кбит/сек
Каналы : 6 каналов
Channel layout : L R C LFE Ls Rs
Частота : 48,0 КГц
Частота кадров : 31,250 кадров/сек (1536 SPF)
Метод сжатия : С потерями
Размер потока : 315 Мбайт (3%)
Заголовок : DUB | iTunes
Язык : Ukrainian
Service kind : Complete Main
Default : Нет
Forced : Нет

Аудио #4
Идентификатор : 5
Формат : AC-3
Формат/Информация : Audio Coding 3
Коммерческое название : Dolby Digital
Идентификатор кодека : A_AC3
Продолжительность : 1 ч. 54 м.
Вид битрейта : Постоянный
Битрейт : 640 Кбит/сек
Каналы : 6 каналов
Channel layout : L R C LFE Ls Rs
Частота : 48,0 КГц
Частота кадров : 31,250 кадров/сек (1536 SPF)
Метод сжатия : С потерями
Размер потока : 525 Мбайт (5%)
Язык : English
Service kind : Complete Main
Default : Нет
Forced : Нет

Текст #1
Идентификатор : 6
Формат : UTF-8
Идентификатор кодека : S_TEXT/UTF8
Идентификатор кодека/Информация : UTF-8 Plain Text
Продолжительность : 1 ч. 45 м.
Битрейт : 0 бит/сек
Count of elements : 19
Размер потока : 636 байт (0%)
Заголовок : Forced
Язык : Russian
Default : Да
Forced : Нет

Текст #2
Идентификатор : 7
Формат : UTF-8
Идентификатор кодека : S_TEXT/UTF8
Идентификатор кодека/Информация : UTF-8 Plain Text
Продолжительность : 1 ч. 48 м.
Битрейт : 56 бит/сек
Count of elements : 1014
Размер потока : 44,8 Кбайт (0%)
Заголовок : Full
Язык : Russian
Default : Нет
Forced : Нет

Текст #3
Идентификатор : 8
Формат : UTF-8
Идентификатор кодека : S_TEXT/UTF8
Идентификатор кодека/Информация : UTF-8 Plain Text
Продолжительность : 1 ч. 10 м.
Битрейт : 0 бит/сек
Count of elements : 5
Размер потока : 171 байт (0%)
Заголовок : Forced
Язык : Ukrainian
Default : Нет
Forced : Нет

Текст #4
Идентификатор : 9
Формат : UTF-8
Идентификатор кодека : S_TEXT/UTF8
Идентификатор кодека/Информация : UTF-8 Plain Text
Продолжительность : 1 ч. 49 м.
Битрейт : 38 бит/сек
Count of elements : 1091
Размер потока : 31,2 Кбайт (0%)
Заголовок : Full
Язык : English
Default : Нет
Forced : Нет

Текст #5
Идентификатор : 10
Формат : UTF-8
Идентификатор кодека : S_TEXT/UTF8
Идентификатор кодека/Информация : UTF-8 Plain Text
Продолжительность : 1 ч. 54 м.
Битрейт : 50 бит/сек
Count of elements : 1559
Размер потока : 42,5 Кбайт (0%)
Заголовок : SDH
Язык : English
Default : Нет
Forced : Нет

Меню
00:00:00.000 : :ita: 01
00:09:24.375 : :ita: 02
00:19:24.375 : :ita: 03
00:28:32.540 : :ita: 04
00:38:27.833 : :ita: 05
00:50:18.708 : :ita: 06
00:58:24.875 : :ita: 07
01:07:01.625 : :ita: 08
01:18:17.125 : :ita: 09
01:24:28.375 : :ita: 10
01:34:54.541 : :ita: 11
01:41:03.416 : :ita: 12
01:54:43.082 : :ita: 13

piratbit.org



Скачать Пороховой коктейль через торрент https://i115.fastpic.ru/big/2021/0718/bb/7325a96c23fc8d31f51c17565153c3bb.jpg Скачать, смотреть онлайн Пороховой коктейль бесплантно в хорошем качестве Описание: Быть киллером — весело и просто. Особенно для Сэм, которая от матери унаследовала талант к заказным убийствам. Но когда девушке ... 7.5 10 6
Торрент: Зарегистрирован [2021-10-09 18:59] · скачан: 117 раз
Статус: √ проверено
Размер: 9.49 GB
Как cкачать? Как скачать Пороховой коктейль через торрент | UTorrent

% Раздел Тема Автор DL S | L
Фильмы [HD 720p, 1080p] (Хороший звук DUB, MVO) [ 5.09 GB ] Пороховой коктейль / Gunpowder Milkshake [2021 BDRip 720p] DUB +MVO [HDRezka Studio] bober100 Скачать
4 | 0
Фильмы 2021 [DVDrip, WEB-DLRip, HDrip] (DUB, MVO) [ 2.18 GB ] Пороховой коктейль / Gunpowder Milkshake [2021 BDRip] +MVO [HDRezka Studio] bober100 Скачать
6 | 0
Фильмы 2021 [DVDrip, WEB-DLRip, HDrip] (DUB, MVO) [ 1.46 GB ] Пороховой коктейль / Gunpowder Milkshake [2021 BDRip] bober100 Скачать
5 | 0
Фильмы (WEB-DL 720p, 1080p) [ 3.66 GB ] Пороховой коктейль / Gunpowder Milkshake [2021 WEBRip 1080p] +MVO [HDRezka Studio] bober100 Скачать
5 | 0
Фильмы (WEB-DL 720p, 1080p) [ 4.11 GB ] Пороховой коктейль / Gunpowder Milkshake [2021 WEB-DL 1080p] killermax2013 Скачать
3 | 0
Фильмы (WEB-DL 720p, 1080p) [ 1.7 GB ] Пороховой коктейль / Gunpowder Milkshake [2021 WEBRip 1080p] killermax2013 Скачать
4 | 0
Фильмы (WEB-DL 720p, 1080p) [ 2.29 GB ] Пороховой коктейль / Gunpowder Milkshake [2021 WEBRip 1080p] [MVO] + [Ukr MVO] killermax2013 Скачать
11 | 0

28-11-2019 20:33  

Отключить всю рекламу на сайте

09-10-2021 20:25 Пороховой коктейль Скачать торрент  

ну ничо так.. смотреть можно. не зря записал. мне понравилось.piratbit.org



10-10-2021 06:04 Пороховой коктейль Скачать торрент  

ощущение было такое, будто посыл фильма- Женщины- тоже мужчины, хоть и страдают....piratbit.org



11-10-2021 15:15 Пороховой коктейль Скачать торрент  

ага поставили уничтожение мужчин на промышленную основу..это феменизм детка...а то что эта Джейн Уик...моргает при стрельбе да и пистолет в руках пляшет...в общем собрали старую гвардию бойцовских фемин и замутили экшен..одно печалька...а куда девать мужчин типа Скотта Эдкинса или Ван Дизеля...в ацтой ??!!piratbit.org



    Дорогой пользователь! Огромная просьба, поблагодарите релизера, оцените раздачу и оставьте свои комментарий, если Вы скачали Пороховой коктейль через торрент бесплатно!
    Комментировать посты могут только пользователи прошедшие не сложную регистрацию
    Показать сообщения:    

    Пороховой коктейль через торрент
    Скачать бесплатно Пороховой коктейль
    Пороховой коктейль скачать торрент
    Пороховой коктейль смотреть онлайн
    Cкачать фильм Пороховой коктейль бесплатно
    Пороховой коктейль скачать торрент в хорошем качестве
    Пороховой коктейль смотреть онлайн бесплатно в хорошем качестве


    Вы не можете начинать темы
    Вы не можете отвечать на сообщения
    Вы не можете редактировать свои сообщения
    Вы не можете удалять свои сообщения
    Вы не можете голосовать в опросах
    Вы не можете прикреплять файлы к сообщениям
    Вы можете скачивать файлы