Anonymous, доброй ночи, присоединяйтесь к нам в Telegram!, здесь всегда актуальный адрес сайта, оперативная поддержка и многое другое!

>

5.6

iTunes

7.4

iTunes

5.7

MVO

1

7.7

1 сезон

6.8

iTunes

7.3

1 сезон

13

6.7

1 сезон

8.3

RePack

30

ULTIMATE

pack

9.9

Лицензия

ВАЖНО

ИГРА 18+

pack

7.3

RePack

MK11

7.7

RePack

jed

7.8

RePack

fifa19

8.5

RePack

RDR2

RePack

NEED FOR SPEED™ PAYBACK

4 сезон

9 сезон

Бесстыжие 9 сезон

Все сериалы

все сериалы на PB.wtf

RePack

FAR CRY 5

Anonymous, доброй ночи, мы катастрофически не успеваем собрать деньги на оплату серверов, помогите нам пожалуйста 5,10,15р., для нас важна любая помощь . В качестве благодарности мы отключим Вам всю рекламу на сайте (укажите свой ник в строку Ваше имя)!

×
  
Magnet ссылка

Одна в поле воин / Army of One (Стефен Дархэм) [2020, Боевик, WEB-DLRip-AVC] MVO [iTunes] от MediaBit piratbit.org

Одна в поле воин через торрент piratbit.org

Раздают: 8 [ 0 KB/s ]
Размер: 1.75 GB | Добавлен: 6 д. назад | Торрент скачан:144 раза
Смотреть онлайн Одна в поле воин | Скачать    Ребята, помогите собрать деньги на оплату серверов!!!

10-10-2021 11:25 Одна в поле воин Скачать торрент  


Одна в поле воин / Army of One
Информация о фильме:
Название: Одна в поле воин
Оригинальное название: Army of One
Год выхода: 2020
Жанр: Боевик
Режиссер: Стефен Дархэм
В ролях: Эллен Холлман, Мэтт Пассмор, Джеральдин Сингер, Стивен Данливи, Гари Каспер, Камерон Бауэн, Кендра Стауб, Джейкоб Хоббс, Нико Фостер, Алан Мур

Описание: Во время путешествия Бреннер Бейкер, бывший офицер спецназа, и ее муж натыкаются на наркокартель. Преступники убивают супруга Бреннер, а ее оставляют умирать. Однако женщина выживает и начинает мстить.



Страна: США
Студия: 2nd Nature Films, Chasing Butterflies Pictures, Popcorn and Soda Productions, Split Point Productions
Продолжительность: 01:27:10
Перевод: Профессиональный (многоголосый, закадровый) - iTunes



Информация о файле:
Кодек: AVC
Формат: MKV
Качество: WEB-DLRip-AVC
Видео: MPEG-4 AVC, 1024x428, 23.976 fps, 2100 kb/s
Аудио RU: AC3, 6 ch, 48 kHz, 384 kbps
Аудио EN: AC3, 6 ch, 48 kHz, 384 kbps
Субтитры: Английские (SDH)

x264 info: frame I:914 Avg QP:12.49 size: 77904
x264 info: frame P:32302 Avg QP:15.96 size: 24106
x264 info: frame B:92303 Avg QP:19.18 size: 5656
x264 info: consecutive B-frames: 3.7% 4.6% 10.3% 41.8% 13.3% 13.4% 6.8% 4.7% 0.6% 0.3% 0.5%
General
Unique ID : 88968785327300411828434320011778577702 (0x42EEC3C879AF2CEA46F85860FB37D526)
Complete name : D:\uTorrent\Рипы wolf1245\Army of One.2020.MVO.iTunes.WEB-DLRip-AVC.[wolf1245.MediaBit].mkv
Format : Matroska
Format version : Version 4
File size : 1.75 GiB
Duration : 1 h 27 min
Overall bit rate : 2 868 kb/s
Movie name : Army of One.2020.MVO.iTunes.WEB-DLRip-AVC.[wolf1245.MediaBit]
Encoded date : UTC 2021-10-10 11:17:40
Writing application : mkvmerge v61.0.0 ('So') 64-bit
Writing library : libebml v1.4.2 + libmatroska v1.6.4

Video
ID : 1
Format : AVC
Format/Info : Advanced Video Codec
Format profile : High@L4.1
Format settings : CABAC / 14 Ref Frames
Format settings, CABAC : Yes
Format settings, Reference frames : 14 frames
Codec ID : V_MPEG4/ISO/AVC
Duration : 1 h 27 min
Bit rate : 2 100 kb/s
Width : 1 024 pixels
Height : 428 pixels
Display aspect ratio : 2.40:1
Frame rate mode : Constant
Frame rate : 24.000 FPS
Color space : YUV
Chroma subsampling : 4:2:0
Bit depth : 8 bits
Scan type : Progressive
Bits/(Pixel*Frame) : 0.200
Stream size : 1.28 GiB (73%)
Title : -=[wolf1245.MediaBit]=-
Writing library : x264 core 161 r3020 d198931
Encoding settings : cabac=1 / ref=14 / deblock=1:-3:-2 / analyse=0x3:0x133 / me=umh / subme=10 / psy=1 / psy_rd=1.00:0.07 / mixed_ref=1 / me_range=32 / chroma_me=1 / trellis=2 / 8x8dct=1 / cqm=0 / deadzone=21,11 / fast_pskip=1 / chroma_qp_offset=-3 / threads=10 / lookahead_threads=2 / sliced_threads=0 / nr=0 / decimate=1 / interlaced=0 / bluray_compat=0 / constrained_intra=0 / bframes=10 / b_pyramid=2 / b_adapt=2 / b_bias=0 / direct=3 / weightb=1 / open_gop=0 / weightp=2 / keyint=240 / keyint_min=24 / scenecut=40 / intra_refresh=0 / rc_lookahead=60 / rc=2pass / mbtree=1 / bitrate=2100 / ratetol=1.0 / qcomp=0.60 / qpmin=0 / qpmax=69 / qpstep=4 / cplxblur=20.0 / qblur=0.5 / vbv_maxrate=50000 / vbv_bufsize=62500 / nal_hrd=none / filler=0 / ip_ratio=1.40 / aq=3:0.80
Language : English
Default : Yes
Forced : No
Color range : Limited
Color primaries : BT.709
Transfer characteristics : BT.709
Matrix coefficients : BT.709

Audio #1
ID : 2
Format : AC-3
Format/Info : Audio Coding 3
Commercial name : Dolby Digital
Codec ID : A_AC3
Duration : 1 h 27 min
Bit rate mode : Constant
Bit rate : 384 kb/s
Channel(s) : 6 channels
Channel layout : L R C LFE Ls Rs
Sampling rate : 48.0 kHz
Frame rate : 31.250 FPS (1536 SPF)
Compression mode : Lossy
Stream size : 239 MiB (13%)
Title : MVO (iTunes)
Language : Russian
Service kind : Complete Main
Default : Yes
Forced : No

Audio #2
ID : 3
Format : AC-3
Format/Info : Audio Coding 3
Commercial name : Dolby Digital
Codec ID : A_AC3
Duration : 1 h 27 min
Bit rate mode : Constant
Bit rate : 384 kb/s
Channel(s) : 6 channels
Channel layout : L R C LFE Ls Rs
Sampling rate : 48.0 kHz
Frame rate : 31.250 FPS (1536 SPF)
Compression mode : Lossy
Stream size : 239 MiB (13%)
Title : Original
Language : English
Service kind : Complete Main
Default : No
Forced : No

Text
ID : 4
Format : UTF-8
Codec ID : S_TEXT/UTF8
Codec ID/Info : UTF-8 Plain Text
Duration : 1 h 25 min
Bit rate : 41 b/s
Count of elements : 1129
Stream size : 26.2 KiB (0%)
Title : SDH
Language : English
Default : No
Forced : No
Релиз от: &

Автор релиза:
piratbit.org



Скачать Одна в поле воин через торрент https://i115.fastpic.org/big/2021/1010/e6/5c61f61151f790f46168bfdf3fdb17e6.jpg Скачать, смотреть онлайн Одна в поле воин бесплантно в хорошем качестве Описание: Во время путешествия Бреннер Бейкер, бывший офицер спецназа, и ее муж натыкаются на наркокартель. Преступники убивают супруга ... 9.8 10 8
Торрент: Зарегистрирован [2021-10-10 11:25] · скачан: 144 раз
Статус: √ проверено
Размер: 1.75 GB
Как cкачать? Как скачать Одна в поле воин через торрент | UTorrent

28-11-2019 20:33  

Отключить всю рекламу на сайте

11-10-2021 17:43 Одна в поле воин Скачать торрент  

опять у них там толерантность торжествует)piratbit.org



14-10-2021 05:07 Одна в поле воин Скачать торрент  

Ага, а образ удивительно похож на Лару Крофт piratbit.org



    Дорогой пользователь! Огромная просьба, поблагодарите релизера, оцените раздачу и оставьте свои комментарий, если Вы скачали Одна в поле воин через торрент бесплатно!
    Комментировать посты могут только пользователи прошедшие не сложную регистрацию
    Показать сообщения:    

    Одна в поле воин через торрент
    Скачать бесплатно Одна в поле воин
    Одна в поле воин скачать торрент
    Одна в поле воин смотреть онлайн
    Cкачать фильм Одна в поле воин бесплатно
    Одна в поле воин скачать торрент в хорошем качестве
    Одна в поле воин смотреть онлайн бесплатно в хорошем качестве


    Вы не можете начинать темы
    Вы не можете отвечать на сообщения
    Вы не можете редактировать свои сообщения
    Вы не можете удалять свои сообщения
    Вы не можете голосовать в опросах
    Вы не можете прикреплять файлы к сообщениям
    Вы можете скачивать файлы