Anonymous, добрый вечер, присоединяйтесь к нам в Telegram!, здесь всегда актуальный адрес сайта, оперативная поддержка и многое другое!

>

5.5

iTunes

7.4

iTunes

7.9

iTunes

1

7.7

1 сезон

6.8

iTunes

7.3

1 сезон

13

6.7

1 сезон

8.3

RePack

30

Deluxe

pack

9.9

Лицензия

ВАЖНО

ИГРА 18+

pack

7.3

RePack

MK11

7.7

RePack

jed

7.8

RePack

fifa19

8.5

RePack

RDR2

RePack

NEED FOR SPEED™ PAYBACK

4 сезон

9 сезон

Бесстыжие 9 сезон

Все сериалы

все сериалы на PB.wtf

RePack

FAR CRY 5

Anonymous, добрый вечер, мы катастрофически не успеваем собрать деньги на оплату серверов, помогите нам пожалуйста 5,10,15р., для нас важна любая помощь . В качестве благодарности мы отключим Вам всю рекламу на сайте (укажите свой ник в строку Ваше имя)!

×
  
Magnet ссылка

Меня зовут Долемайт / Dolemite Is My Name (Крэйг Брюэр) [2019, драма, комедия, биография, WEB-DLRip - HEVC 1080p 10 bit 60 FPS, AVO, DUB] piratbit.org

Меня зовут Долемайт через торрент piratbit.org

Раздают: 4 [ 0 KB/s ]
Размер: 4.21 GB | Добавлен: 16 д. назад | Торрент скачан:40 раз
Смотреть онлайн Меня зовут Долемайт | Скачать    Ребята, помогите собрать деньги на оплату серверов!!!

10-10-2021 19:11 Меня зовут Долемайт Скачать торрент  

Dolemite Is My Name
«Make your own legend»


Год выпуска: 2019
Страна: США
Жанр: драма, комедия, биография

Продолжительность: 01:58:16
Перевод: Дублированный | Netflix
Перевод: Авторский | М. Яроцкий
Субтитры: русские |

Режиссер: Крэйг Брюэр
В ролях: Эдди Мёрфи, Коди Смит-Макфи, Уэсли Снайпс, Кигэн-Майкл Ки, Крис Рок, Крэйг Робинсон, Снуп Догг, Джамал Льюис, Майк Эппс, Ти-Ай

Описание:
Лос-Анджелес, 1970 год. Уже немолодой неудачливый стендапер Руди Рэй Мур пытался прославиться в разных сферах творческой деятельности, но безуспешно, и теперь работает в музыкальном магазине в гетто. Однажды он слышит от местного бомжа интересные рифмы и берёт их на вооружение. Новый сценический образ Руди — развязный и пошлый Долемайт, который одевается как сутенёр — становится невероятно популярным. Самостоятельно записав и выпустив несколько очень успешных у чёрной аудитории альбомов, Руди решает, что Долемайту нужен свой фильм.

Мировая премьера: 7 сентября 2019


Качество: WEB-DLRip 1080p Rip by DD2D3
Формат: MKV
Видео: V_MPEGH/ISO/HEVC; 1920x960 (2.000); 4003 Kbps; 60 fps; 0,036 bpp
Аудио: русский; AC3+; 640 Kbps; CBR; 6 ch ||
Аудио: русский; AC3; 448 Kbps; CBR; 6 ch ||
Навигация по главам: есть



Общее
Уникальный идентификатор : 174483364894192916923225304311564107963 (0x83444612D2B3F11D97A5A38CEB3080BB)
Полное имя : D:\Dolemite Is My Name (2019) WEB-DLRip - HEVC 1080p 10 bit 60 FPS.mkv
Формат : Matroska
Версия формата : Version 4
Размер файла : 4,21 Гбайт
Продолжительность : 1 ч. 58 м.
Общий поток : 5 098 Кбит/сек
Название фильма : Rip by from DD2D3
Дата кодирования : UTC 2021-10-10 18:22:17
Программа кодирования : mkvmerge v10.0.0 ('To Drown In You') 32bit
Библиотека кодирования : libebml v1.3.4 + libmatroska v1.4.5
Attachments : poster

Видео
Идентификатор : 1
Формат : HEVC
Формат/Информация : High Efficiency Video Coding
Профиль формата : Main 10@L5.1@Main
Идентификатор кодека : V_MPEGH/ISO/HEVC
Продолжительность : 1 ч. 58 м.
Битрейт : 4 004 Кбит/сек
Ширина : 1 920 пикселей
Высота : 960 пикселей
Соотношение сторон : 2,000
Режим частоты кадров : Постоянный
Частота кадров : 60,000 кадров/сек
Цветовое пространство : YUV
Субдискретизация насыщенности : 4:2:0
Битовая глубина : 10 бит
Бит/(Пиксели*Кадры) : 0.036
Размер потока : 3,31 Гбайт (79%)
Библиотека кодирования : x265 3.5+10-82786fccc:[Windows][GCC 11.1.0][64 bit] 10bit
Настройки программы : cpuid=1111039 / frame-threads=16 / numa-pools=4 / wpp / pmode / pme / no-psnr / no-ssim / log-level=2 / input-csp=1 / input-res=1920x960 / interlace=0 / total-frames=425778 / level-idc=51 / high-tier=1 / uhd-bd=0 / ref=3 / no-allow-non-conformance / no-repeat-headers / annexb / no-aud / no-eob / no-eos / no-hrd / info / hash=0 / no-temporal-layers / open-gop / min-keyint=24 / keyint=240 / gop-lookahead=0 / bframes=4 / b-adapt=2 / b-pyramid / bframe-bias=0 / rc-lookahead=20 / lookahead-slices=6 / scenecut=40 / hist-scenecut=0 / radl=0 / no-splice / no-intra-refresh / ctu=64 / min-cu-size=8 / no-rect / no-amp / max-tu-size=32 / tu-inter-depth=1 / tu-intra-depth=1 / limit-tu=0 / rdoq-level=0 / dynamic-rd=0.00 / no-ssim-rd / signhide / no-tskip / nr-intra=0 / nr-inter=0 / no-constrained-intra / strong-intra-smoothing / max-merge=3 / limit-refs=1 / no-limit-modes / me=1 / subme=2 / merange=57 / temporal-mvp / no-frame-dup / no-hme / weightp / no-weightb / no-analyze-src-pics / deblock=0:0 / sao / no-sao-non-deblock / rd=3 / selective-sao=4 / early-skip / rskip / no-fast-intra / no-tskip-fast / no-cu-lossless / b-intra / no-splitrd-skip / rdpenalty=0 / psy-rd=0.40 / psy-rdoq=0.00 / no-rd-refine / no-lossless / cbqpoffs=-2 / crqpoffs=-2 / rc=abr / bitrate=4000 / qcomp=0.72 / qpstep=4 / stats-write=0 / stats-read=2 / cplxblur=20.0 / qblur=0.5 / ipratio=1.40 / pbratio=1.30 / aq-mode=2 / aq-strength=1.00 / cutree / zone-count=0 / no-strict-cbr / qg-size=32 / no-rc-grain / qpmax=69 / qpmin=0 / no-const-vbv / sar=1 / overscan=0 / videoformat=5 / range=0 / colorprim=1 / transfer=1 / colormatrix=1 / chromaloc=0 / display-window=0 / cll=0,0 / min-luma=0 / max-luma=1023 / log2-max-poc-lsb=8 / vui-timing-info / vui-hrd-info / slices=1 / no-opt-qp-pps / no-opt-ref-list-length-pps / no-multi-pass-opt-rps / scenecut-bias=0.05 / hist-threshold=0.03 / no-opt-cu-delta-qp / no-aq-motion / no-hdr10 / no-hdr10-opt / no-dhdr10-opt / no-idr-recovery-sei / analysis-reuse-level=0 / analysis-save-reuse-level=0 / analysis-load-reuse-level=0 / scale-factor=0 / refine-intra=0 / refine-inter=0 / refine-mv=1 / refine-ctu-distortion=0 / no-limit-sao / ctu-info=0 / no-lowpass-dct / refine-analysis-type=0 / copy-pic=1 / max-ausize-factor=1.0 / no-dynamic-refine / no-single-sei / no-hevc-aq / no-svt / no-field / qp-adaptation-range=1.00 / scenecut-aware-qp=0conformance-window-offsets / right=0 / bottom=0 / decoder-max-rate=0 / no-vbv-live-multi-pass
Default : Да
Forced : Нет
Цветовой диапазон : Limited
Основные цвета : BT.709
Характеристики трансфера : BT.709
Коэффициенты матрицы : BT.709

Аудио #1
Идентификатор : 2
Формат : E-AC-3
Формат/Информация : Enhanced AC-3
Коммерческое название : Dolby Digital Plus
Идентификатор кодека : A_EAC3
Продолжительность : 1 ч. 58 м.
Вид битрейта : Постоянный
Битрейт : 640 Кбит/сек
Каналы : 6 каналов
Channel layout : L R C LFE Ls Rs
Частота : 48,0 КГц
Частота кадров : 31,250 кадров/сек (1536 SPF)
Метод сжатия : С потерями
Размер потока : 541 Мбайт (13%)
Заголовок : Netflix
Язык : Russian
Service kind : Complete Main
Default : Да
Forced : Да

Аудио #2
Идентификатор : 3
Формат : AC-3
Формат/Информация : Audio Coding 3
Коммерческое название : Dolby Digital
Идентификатор кодека : A_AC3
Продолжительность : 1 ч. 58 м.
Вид битрейта : Постоянный
Битрейт : 448 Кбит/сек
Каналы : 6 каналов
Channel layout : L R C LFE Ls Rs
Частота : 48,0 КГц
Частота кадров : 31,250 кадров/сек (1536 SPF)
Метод сжатия : С потерями
Размер потока : 379 Мбайт (9%)
Заголовок : AVO М.Яроцкий
Язык : Russian
Service kind : Complete Main
Default : Нет
Forced : Нет

Текст
Идентификатор : 4
Формат : UTF-8
Идентификатор кодека : S_TEXT/UTF8
Идентификатор кодека/Информация : UTF-8 Plain Text
Продолжительность : 1 ч. 57 м.
Битрейт : 122 бит/сек
Count of elements : 1884
Размер потока : 105 Кбайт (0%)
Язык : Russian
Default : Нет
Forced : Нет

Меню
00:00:00.000 : :Глава 01
00:05:00.000 : :Глава 02
00:10:00.000 : :Глава 03
00:15:00.000 : :Глава 04
00:20:00.000 : :Глава 05
00:25:00.000 : :Глава 06
00:30:00.000 : :Глава 07
00:35:00.000 : :Глава 08
00:40:00.000 : :Глава 09
00:45:00.000 : :Глава 10
00:50:00.000 : :Глава 11
00:55:00.000 : :Глава 12
01:00:00.000 : :Глава 13
01:05:00.000 : :Глава 14
01:10:00.000 : :Глава 15
01:15:00.000 : :Глава 16
01:20:00.000 : :Глава 17
01:25:00.000 : :Глава 18
01:30:00.000 : :Глава 19
01:35:00.000 : :Глава 20
01:40:00.000 : :Глава 21
01:45:00.000 : :Глава 22
01:50:00.000 : :Глава 23
01:55:00.000 : :Глава 24
скриншот  скриншот   скриншот  скриншот  


© Оформление by DD2D3 piratbit.org



Скачать Меня зовут Долемайт через торрент http://images.vfl.ru/ii/1633892212/97894db7/36199285.jpg Скачать, смотреть онлайн Меня зовут Долемайт бесплантно в хорошем качестве Описание: Лос-Анджелес, 1970 год. Уже немолодой неудачливый стендапер Руди Рэй Мур пытался прославиться в разных сферах творческой ... 10 10 1
Торрент: Зарегистрирован [2021-10-10 19:11] · скачан: 40 раз
Статус: √ проверено
Размер: 4.21 GB
Как cкачать? Как скачать Меня зовут Долемайт через торрент | UTorrent

% Раздел Тема Автор DL S | L
Фильмы 2019-2020 [DVDrip, WEB-DLRip, HDrip] (DUB, MVO) [ 1.46 GB ] Меня зовут Долемайт / Dolemite Is My Name [2019 биография WEB-DLRip] DUB [Netflix] bober100 Скачать
2 | 0
Фильмы (WEB-DL 720p, 1080p) [ 7.11 GB ] Меня зовут Долемайт / Dolemite Is My Name [2019 биография WEB-DL 1080p] DUB [Netflix] bober100 Скачать
1 | 0

28-11-2019 20:33  

Отключить всю рекламу на сайте

    Дорогой пользователь! Огромная просьба, поблагодарите релизера, оцените раздачу и оставьте свои комментарий, если Вы скачали Меня зовут Долемайт через торрент бесплатно!
    Комментировать посты могут только пользователи прошедшие не сложную регистрацию
    Показать сообщения:    

    Меня зовут Долемайт через торрент
    Скачать бесплатно Меня зовут Долемайт
    Меня зовут Долемайт скачать торрент
    Меня зовут Долемайт смотреть онлайн
    Cкачать фильм Меня зовут Долемайт бесплатно
    Меня зовут Долемайт скачать торрент в хорошем качестве
    Меня зовут Долемайт смотреть онлайн бесплатно в хорошем качестве


    Вы не можете начинать темы
    Вы не можете отвечать на сообщения
    Вы не можете редактировать свои сообщения
    Вы не можете удалять свои сообщения
    Вы не можете голосовать в опросах
    Вы не можете прикреплять файлы к сообщениям
    Вы можете скачивать файлы