Anonymous, добрый день, присоединяйтесь к нам в Telegram!, здесь всегда актуальный адрес сайта, оперативная поддержка и многое другое!

>

5.5

iTunes

7.4

iTunes

7.9

iTunes

1

7.7

1 сезон

6.8

iTunes

7.3

1 сезон

13

6.7

1 сезон

8.3

RePack

30

ULTIMATE

pack

9.9

Лицензия

ВАЖНО

ИГРА 18+

pack

7.3

RePack

MK11

7.7

RePack

jed

7.8

RePack

fifa19

8.5

RePack

RDR2

RePack

NEED FOR SPEED™ PAYBACK

4 сезон

9 сезон

Бесстыжие 9 сезон

Все сериалы

все сериалы на PB.wtf

RePack

FAR CRY 5

Anonymous, добрый день, мы катастрофически не успеваем собрать деньги на оплату серверов, помогите нам пожалуйста 5,10,15р., для нас важна любая помощь . В качестве благодарности мы отключим Вам всю рекламу на сайте (укажите свой ник в строку Ваше имя)!

×
  
Magnet ссылка

Главный герой / Free Guy (Шон Леви) [2021, фантастика, боевик, комедия, WEB-DLRip - HEVC 1080p 10 bit 60 FPS, DUB] piratbit.org

Главный герой через торрент piratbit.org

Раздают: 41 [ 3 MB/s ] Качают: 2 [ 0 KB/s ]
Размер: 3.29 GB | Добавлен: 12 д. назад | Торрент скачан:346 раз
Смотреть онлайн Главный герой | Скачать    Ребята, помогите собрать деньги на оплату серверов!!!

10-10-2021 19:59 Главный герой Скачать торрент  

Free Guy
«Жизнь слишком коротка, чтобы быть на вторых ролях»


Год выпуска: 2021
Страна: США, Канада
Жанр: фантастика, боевик, комедия

Продолжительность: 01:54:58
Перевод: Дублированный | iTunes
Субтитры: русские | iTunes

Режиссер: Шон Леви
В ролях: Райан Рейнольдс, Джоди Комер, Тайка Вайтити, Уткарш Амбудкар, Джо Кири, Камилль Костек, Лил Рел Ховери, Кимберли Хоу, Мэтти Кардаропл, Тейт Флетчер, Майк Дивайн, Софи Леви, Вернон Скотт, Нахим Гарсиа, Аннабел Грэц, Кеннет Израэль

Описание:
ВУ сотрудника крупного банка всё идёт по накатанной, пока однажды он не выясняет, что окружающий его мир — это часть огромной видеоигры, а сам он в ней — всего лишь второстепенный персонаж. Хватит ли у него духу переписать свой код, обратить на себя внимание прекрасной девушки и, наконец, спасти мир? Одним словом, получится ли из него главный герой?

Мировая премьера: 10 августа 2021


Качество: WeB-DLRip 1080p Rip by DD2D3
Формат: MKV
Видео: V_MPEGH/ISO/HEVC; 1920x800 (2.40:1); 3703 Kbps; 59,940 fps; 0,039 bpp
Аудио: русский; AC3; 384 Kbps; CBR; 6 ch ||
Навигация по главам: есть



Общее
Уникальный идентификатор : 195245151589437377401707346480450854618 (0x92E2D9305D9F8E069A299461BEA95EDA)
Полное имя : D:\Free Guy (2021) WEB-DLRip - HEVC 1080p 10 bit 60 FPS.mkv
Формат : Matroska
Версия формата : Version 2
Размер файла : 3,29 Гбайт
Продолжительность : 1 ч. 54 м.
Общий поток : 4 094 Кбит/сек
Название фильма : Rip by from DD2D3
Дата кодирования : UTC 2021-10-15 14:52:34
Программа кодирования : mkvmerge v6.9.1 ('Blue Panther') 32bit built on Apr 18 2014 18:15:44
Библиотека кодирования : libebml v1.3.0 + libmatroska v1.4.1
Attachments : poster

Видео
Идентификатор : 1
Формат : HEVC
Формат/Информация : High Efficiency Video Coding
Профиль формата : Main@L5.1@Main
Идентификатор кодека : V_MPEGH/ISO/HEVC
Продолжительность : 1 ч. 54 м.
Битрейт : 3 628 Кбит/сек
Ширина : 1 920 пикселей
Высота : 800 пикселей
Соотношение сторон : 2,40:1
Режим частоты кадров : Постоянный
Частота кадров : 59,940 (60000/1001) кадров/сек
Цветовое пространство : YUV
Субдискретизация насыщенности : 4:2:0
Битовая глубина : 8 бит
Бит/(Пиксели*Кадры) : 0.039
Размер потока : 2,91 Гбайт (89%)
Библиотека кодирования : x265 3.5+10-82786fccc:[Windows][GCC 11.1.0][64 bit] 8bit
Настройки программы : cpuid=1111039 / frame-threads=16 / numa-pools=4 / wpp / pmode / pme / no-psnr / no-ssim / log-level=2 / input-csp=1 / input-res=1920x800 / interlace=0 / total-frames=413498 / level-idc=51 / high-tier=1 / uhd-bd=0 / ref=3 / no-allow-non-conformance / no-repeat-headers / annexb / no-aud / no-eob / no-eos / no-hrd / info / hash=0 / no-temporal-layers / open-gop / min-keyint=24 / keyint=240 / gop-lookahead=0 / bframes=4 / b-adapt=2 / b-pyramid / bframe-bias=0 / rc-lookahead=20 / lookahead-slices=5 / scenecut=40 / hist-scenecut=0 / radl=0 / no-splice / no-intra-refresh / ctu=64 / min-cu-size=8 / no-rect / no-amp / max-tu-size=32 / tu-inter-depth=1 / tu-intra-depth=1 / limit-tu=0 / rdoq-level=0 / dynamic-rd=0.00 / no-ssim-rd / signhide / no-tskip / nr-intra=0 / nr-inter=0 / no-constrained-intra / strong-intra-smoothing / max-merge=3 / limit-refs=1 / no-limit-modes / me=1 / subme=2 / merange=57 / temporal-mvp / no-frame-dup / no-hme / weightp / no-weightb / no-analyze-src-pics / deblock=0:0 / sao / no-sao-non-deblock / rd=3 / selective-sao=4 / early-skip / rskip / no-fast-intra / no-tskip-fast / no-cu-lossless / b-intra / no-splitrd-skip / rdpenalty=0 / psy-rd=0.40 / psy-rdoq=0.00 / no-rd-refine / no-lossless / cbqpoffs=-2 / crqpoffs=-2 / rc=abr / bitrate=3700 / qcomp=0.72 / qpstep=4 / stats-write=0 / stats-read=2 / cplxblur=20.0 / qblur=0.5 / ipratio=1.40 / pbratio=1.30 / aq-mode=2 / aq-strength=1.00 / cutree / zone-count=0 / no-strict-cbr / qg-size=32 / no-rc-grain / qpmax=69 / qpmin=0 / no-const-vbv / sar=1 / overscan=0 / videoformat=5 / range=0 / colorprim=1 / transfer=1 / colormatrix=1 / chromaloc=0 / display-window=0 / cll=0,0 / min-luma=0 / max-luma=255 / log2-max-poc-lsb=8 / vui-timing-info / vui-hrd-info / slices=1 / no-opt-qp-pps / no-opt-ref-list-length-pps / no-multi-pass-opt-rps / scenecut-bias=0.05 / hist-threshold=0.03 / no-opt-cu-delta-qp / no-aq-motion / no-hdr10 / no-hdr10-opt / no-dhdr10-opt / no-idr-recovery-sei / analysis-reuse-level=0 / analysis-save-reuse-level=0 / analysis-load-reuse-level=0 / scale-factor=0 / refine-intra=0 / refine-inter=0 / refine-mv=1 / refine-ctu-distortion=0 / no-limit-sao / ctu-info=0 / no-lowpass-dct / refine-analysis-type=0 / copy-pic=1 / max-ausize-factor=1.0 / no-dynamic-refine / no-single-sei / no-hevc-aq / no-svt / no-field / qp-adaptation-range=1.00 / scenecut-aware-qp=0conformance-window-offsets / right=0 / bottom=0 / decoder-max-rate=0 / no-vbv-live-multi-pass
Default : Да
Forced : Нет
Цветовой диапазон : Limited
Основные цвета : BT.709
Характеристики трансфера : BT.709
Коэффициенты матрицы : BT.709
Statistics Tags Issue : mkvmerge v10.0.0 ('To Drown In You') 32bit 2021-10-10 19:22:09 / mkvmerge v6.9.1 ('Blue Panther') 32bit built on Apr 18 2014 18:15:44 2021-10-15 14:52:34
FromStats_BitRate : 3703681
FromStats_Duration : 01:54:58.525000000
FromStats_FrameCount : 413498
FromStats_StreamSize : 3193742047

Аудио
Идентификатор : 2
Формат : AC-3
Формат/Информация : Audio Coding 3
Коммерческое название : Dolby Digital
Идентификатор кодека : A_AC3
Продолжительность : 1 ч. 54 м.
Вид битрейта : Постоянный
Битрейт : 384 Кбит/сек
Каналы : 6 каналов
Channel layout : L R C LFE Ls Rs
Частота : 48,0 КГц
Частота кадров : 31,250 кадров/сек (1536 SPF)
Метод сжатия : С потерями
Размер потока : 316 Мбайт (9%)
Заголовок : iTunes
Язык : Russian
Service kind : Complete Main
Default : Да
Forced : Да

Текст
Идентификатор : 3
Формат : UTF-8
Идентификатор кодека : S_TEXT/UTF8
Идентификатор кодека/Информация : UTF-8 Plain Text
Заголовок : Full [iTunes]
Язык : Russian
Default : Нет
Forced : Нет

Меню
00:00:00.000 : en:Chapter 01
00:05:09.100 : en:Chapter 02
00:08:43.815 : en:Chapter 03
00:14:29.702 : en:Chapter 04
00:21:25.701 : en:Chapter 05
00:24:06.028 : en:Chapter 06
00:28:25.245 : en:Chapter 07
00:34:21.810 : en:Chapter 08
00:39:40.837 : en:Chapter 09
00:44:10.731 : en:Chapter 10
00:48:47.967 : en:Chapter 11
00:52:47.748 : en:Chapter 12
00:56:18.375 : en:Chapter 13
01:00:17.739 : en:Chapter 14
01:04:41.920 : en:Chapter 15
01:09:13.816 : en:Chapter 16
01:15:13.300 : en:Chapter 17
01:19:14.083 : en:Chapter 18
01:23:59.326 : en:Chapter 19
01:28:06.406 : en:Chapter 20
01:33:07.415 : en:Chapter 21
01:39:19.954 : en:Chapter 22
01:44:22.506 : en:Chapter 23
01:46:13.993 : en:Chapter 24
скриншот  скриншот   скриншот   скриншот  


© Оформление by DD2D3 piratbit.org



Скачать Главный герой через торрент http://images.vfl.ru/ii/1633895246/d5720b3b/36199850.jpg Скачать, смотреть онлайн Главный герой бесплантно в хорошем качестве Описание: ВУ сотрудника крупного банка всё идёт по накатанной, пока однажды он не выясняет, что окружающий его мир — это часть огромной ... 9.8 10 19
Info! Золотая раздача, скачанное не засчитывается.
Торрент: Зарегистрирован [2021-10-15 07:53] · скачан: 346 раз
Статус: √ проверено
Размер: 3.29 GB
Как cкачать? Как скачать Главный герой через торрент | UTorrent

% Раздел Тема Автор DL S | L
T Фильмы [HD 720p, 1080p] (Хороший звук DUB, MVO) [ 6.13 GB ] Главный герой / Free Guy [2021 BDRip 1080p] [Line] + [DVO] killermax2013 Скачать
71 | 0
Фильмы 2021 [DVDrip, WEB-DLRip, HDrip] (DUB, MVO) [ 2.13 GB ] Главный герой / Free Guy [2021 BDRip] DUB bober100 Скачать
24 | 3
Фильмы 2021 [DVDrip, WEB-DLRip, HDrip] (DUB, MVO) [ 1.41 GB ] Главный герой / Free Guy [2021 BDRip] bober100 Скачать
23 | 0
Ultra HD (UHD: 2K, 4K, 8K) — видео сверхвысокой чёткости [ 47.49 GB ] Главный герой / Free Guy [2021 UHD BDRemux 2160p] DUB bober100 Скачать
54 | 5
Фильмы [HD 720p, 1080p] (Хороший звук DUB, MVO) [ 5.8 GB ] Главный герой / Free Guy [2021 BDRip 720p] DUB bober100 Скачать
32 | 1
T Фильмы 2021 (Звук TS, Cam, VO, DVO) [ 1.47 GB ] Главный герой / Free Guy [2021 BDRip] DVO [Pazl Voice] Twi7ter Скачать
865 | 3
Фильмы с украинским озвучиванием [ 3.49 GB ] Главный герой / Персонаж / Free Guy [2021 BDRip 1080p] [Ukr DUB] killermax2013 Скачать
5 | 0


Последний раз редактировалось: dd2d3 (2021-10-15 07:53), всего редактировалось 1 раз

28-11-2019 20:33  

Отключить всю рекламу на сайте

11-10-2021 05:20 Главный герой Скачать торрент  

намного лучше чем "последнему игроку приготовиться"piratbit.org



13-10-2021 19:53 Главный герой Скачать торрент  


Большое Спасибо dd2d3!!!
Как всегда помогу с раздачей!
Спасибо Друг, что ты есть!

Best Regards, Your V&S!
piratbit.org



14-10-2021 22:13 Главный герой Скачать торрент  

посмотрел первые 5 мин напомнило gta 5 rppiratbit.org



15-10-2021 11:56 Главный герой Скачать торрент  

Koshmarwin писал(а):

намного лучше чем "последнему игроку приготовиться"

эм..."Первому игроку приготовиться" может?)piratbit.org



15-10-2021 13:01 Главный герой Скачать торрент  

Dark_essence писал(а):

Koshmarwin писал(а):

намного лучше чем "последнему игроку приготовиться"

эм..."Первому игроку приготовиться" может?)

Да суть одна.piratbit.org



17-10-2021 20:58 Главный герой Скачать торрент  

Очередной проходной голливудский комикс. В основном нудно, местами интересно.piratbit.org



19-10-2021 02:39 Главный герой Скачать торрент  

по сравнению с этим фильмом, зеленый фонарь просто шедеврpiratbit.org



    Дорогой пользователь! Огромная просьба, поблагодарите релизера, оцените раздачу и оставьте свои комментарий, если Вы скачали Главный герой через торрент бесплатно!
    Комментировать посты могут только пользователи прошедшие не сложную регистрацию
    Показать сообщения:    

    Главный герой через торрент
    Скачать бесплатно Главный герой
    Главный герой скачать торрент
    Главный герой смотреть онлайн
    Cкачать фильм Главный герой бесплатно
    Главный герой скачать торрент в хорошем качестве
    Главный герой смотреть онлайн бесплатно в хорошем качестве


    Вы не можете начинать темы
    Вы не можете отвечать на сообщения
    Вы не можете редактировать свои сообщения
    Вы не можете удалять свои сообщения
    Вы не можете голосовать в опросах
    Вы не можете прикреплять файлы к сообщениям
    Вы можете скачивать файлы