Всегда рабочее зеркало без VPN и Proxy просто перед .vidak.icu напиши любое слово или цифру, Пример http://c5qg.vidak.icu

MVO

MVO

1 сезон

1

1 сезон

iTunes

1 сезон

13

1 сезон

Deluxe

pack

Рекомендуем

Repack

30

ВАЖНО

RePack

MK11

RePack

jed

RePack

fifa19

RePack

RDR2

RePack

NEED FOR SPEED™ PAYBACK

Кинопоиск HD

6 сезон

 Острые козырьки 6 сезон

Все сериалы

все сериалы на PB.wtf

RePack

FAR CRY 5
  
Magnet ссылка

Еще по одной / Druk / Another Round (Томас Винтерберг) [2020, Драма, комедия, BDRip 1080p] DVO [Кубик в кубе] piratbit.org

Еще по одной через торрент piratbit.org

Раздают: 1 [ 0 KB/s ]
Размер: 9.61 GB | Добавлен: 9 мес. назад | Торрент скачан:169 раз
Смотреть онлайн Еще по одной | Скачать    Ребята, помогите собрать деньги на оплату серверов!!!

11-10-2021 01:23 Еще по одной Скачать торрент  

Еще по одной | Druk | Another Round
Год выпуска: 2020
Страна: Дания, Швеция, Нидерланды
Студия: Zentropa Entertainments, Film i Väst, Zentropa International Sweden
Жанр: Драма, комедия
Продолжительность: 01:56:19
Перевод: Профессиональный (двухголосый, закадровый) | Кубик в кубе
Субтитры: Русские (Full), английские (Full)

Режиссер: Томас Винтерберг

rating

В ролях: Мадс Миккельсен, Томас Бо Ларсен, Магнус Милланг, Ларс Ранте, Мария Бонневи, Хелена Рейнгор Нойманн, Суссе Вольд, Магнус Шёруп, Сайлас Корнелиус Ван, Альберт Рудбек Линдхардт

Описание: Заходят как-то в бар профессор истории, психолог, экономист и физрук. И решают проверить научную теорию: c самого рождения человек страдает от нехватки алкоголя в крови. Чтобы стать по-настоящему счастливым, нужно быть немного нетрезвым. Бокал вина утром, пинта пива в обед, стакан виски вечером. Казалось бы, что может пойти не так?

Качество: BDRip 1080p
Формат: MKV

Видео: MPEG-4 AVC, 1920x960, 10.8 Mbit/s, 24.000 fps
Аудио#1: 48 kHz, AC3, 5.1, 384 Kbps | Кубик в кубе | RUS |
Аудио#2: 48 kHz, AC3, 5.1, 640 Kbps | Оригинал | DAN |
скриншот  скриншот  скриншот  скриншот  

Общее
Уникальный идентификатор : 136018095274434771549699509851158703386 (0x665421DC3BEB08835FED2FE15A876D1A)
Полное имя : Druk.Another.Round.2020.BDRip.1080p.mkv
Формат : Matroska
Версия формата : Version 4
Размер файла : 9,61 Гбайт
Продолжительность : 1 ч. 56 м.
Общий поток : 11,8 Мбит/сек
Название фильма : Еще по одной / Druk / Another Round (2020)
Дата кодирования : UTC 2021-10-10 18:51:21
Программа кодирования : mkvmerge v61.0.0 ('So') 64-bit
Библиотека кодирования : libebml v1.4.2 + libmatroska v1.6.4

Видео
Идентификатор : 1
Формат : AVC
Формат/Информация : Advanced Video Codec
Профиль формата : High@L4.1
Настройки формата : CABAC / 4 Ref Frames
Параметр CABAC формата : Да
Параметр RefFrames формата : 4 кадра
Идентификатор кодека : V_MPEG4/ISO/AVC
Продолжительность : 1 ч. 56 м.
Битрейт : 10,8 Мбит/сек
Ширина : 1 920 пикселей
Высота : 960 пикселей
Соотношение сторон : 2,000
Режим частоты кадров : Постоянный
Частота кадров : 24,000 кадра/сек
Цветовое пространство : YUV
Субдискретизация насыщенности : 4:2:0
Битовая глубина : 8 бит
Тип развёртки : Прогрессивная
Бит/(Пиксели*Кадры) : 0.244
Размер потока : 8,77 Гбайт (91%)
Библиотека кодирования : x264 core 161 -from seleZen
Настройки программы : cabac=1 / ref=4 / deblock=1:-2:-2 / analyse=0x3:0x113 / me=umh / subme=10 / psy=1 / psy_rd=1.02:0.02 / mixed_ref=1 / me_range=32 / chroma_me=1 / trellis=2 / 8x8dct=1 / cqm=0 / deadzone=21,11 / fast_pskip=0 / chroma_qp_offset=-3 / threads=24 / lookahead_threads=4 / sliced_threads=0 / nr=0 / decimate=0 / interlaced=0 / bluray_compat=0 / constrained_intra=0 / bframes=9 / b_pyramid=2 / b_adapt=2 / b_bias=0 / direct=3 / weightb=1 / open_gop=0 / weightp=2 / keyint=240 / keyint_min=24 / scenecut=40 / intra_refresh=0 / rc_lookahead=40 / rc=2pass / mbtree=0 / bitrate=10800 / ratetol=1.0 / qcomp=0.60 / qpmin=0 / qpmax=51 / qpstep=4 / cplxblur=20.0 / qblur=0.5 / vbv_maxrate=50000 / vbv_bufsize=62000 / nal_hrd=none / filler=0 / ip_ratio=1.40 / pb_ratio=1.30 / aq=3:0.80
Язык : English
Default : Да
Forced : Нет

Аудио #1
Идентификатор : 2
Формат : AC-3
Формат/Информация : Audio Coding 3
Коммерческое название : Dolby Digital
Идентификатор кодека : A_AC3
Продолжительность : 1 ч. 56 м.
Вид битрейта : Постоянный
Битрейт : 384 Кбит/сек
Каналы : 6 каналов
Channel layout : L R C LFE Ls Rs
Частота : 48,0 КГц
Частота кадров : 31,250 кадров/сек (1536 SPF)
Метод сжатия : С потерями
Размер потока : 319 Мбайт (3%)
Язык : Russian
Service kind : Complete Main
Default : Да
Forced : Нет

Аудио #2
Идентификатор : 3
Формат : AC-3
Формат/Информация : Audio Coding 3
Коммерческое название : Dolby Digital
Идентификатор кодека : A_AC3
Продолжительность : 1 ч. 56 м.
Вид битрейта : Постоянный
Битрейт : 640 Кбит/сек
Каналы : 6 каналов
Channel layout : L R C LFE Ls Rs
Частота : 48,0 КГц
Частота кадров : 31,250 кадров/сек (1536 SPF)
Метод сжатия : С потерями
Размер потока : 532 Мбайт (5%)
Язык : Danish
Service kind : Complete Main
Default : Нет
Forced : Нет

Текст #1
Идентификатор : 4
Формат : UTF-8
Идентификатор кодека : S_TEXT/UTF8
Идентификатор кодека/Информация : UTF-8 Plain Text
Продолжительность : 1 ч. 52 м.
Битрейт : 61 бит/сек
Count of elements : 1009
Размер потока : 50,5 Кбайт (0%)
Заголовок : Full
Язык : Russian
Default : Нет
Forced : Нет

Текст #2
Идентификатор : 5
Формат : UTF-8
Идентификатор кодека : S_TEXT/UTF8
Идентификатор кодека/Информация : UTF-8 Plain Text
Продолжительность : 1 ч. 52 м.
Битрейт : 45 бит/сек
Count of elements : 1040
Размер потока : 37,1 Кбайт (0%)
Заголовок : Full
Язык : English
Default : Нет
Forced : Нет

Меню
00:00:00.000 : Chapter 01
00:09:59.666 : Chapter 02
00:19:59.750 : Chapter 03
00:29:59.875 : Chapter 04
00:39:59.708 : Chapter 05
00:49:59.833 : Chapter 06
00:59:59.708 : Chapter 07
01:09:59.791 : Chapter 08
01:19:59.583 : Chapter 09
01:29:59.875 : Chapter 10
01:39:59.416 : Chapter 11
01:49:59.916 : Chapter 12

piratbit.org



Скачать Еще по одной через торрент https://i1.imageban.ru/out/2021/10/10/6c13cefb833695a597e692d945b81cfb.jpg Скачать, смотреть онлайн Еще по одной бесплантно в хорошем качестве Описание: Заходят как-то в бар профессор истории, психолог, экономист и физрук. И решают проверить научную теорию: c самого рождения ... 10 10 5
Торрент: Зарегистрирован [2021-10-11 01:23] · скачан: 169 раз
Статус: √ проверено
Размер: 9.61 GB
Как cкачать? Как скачать Еще по одной через торрент | UTorrent

% Раздел Тема Автор DL S | L
Фильмы 2019-2020 [DVDrip, WEB-DLRip, HDrip] (DUB, MVO) [ 2.17 GB ] Еще по одной / Druk / Another Round [2020 BDRip] - [] Twi7ter Скачать
24 | 0
Фильмы [HD 720p, 1080p] (Хороший звук DUB, MVO) [ 14.97 GB ] Еще по одной / Druk / Another Round [2020 BDRip 1080p] DUB [ BD RUS] bober100 Скачать
2 | 0
Фильмы [HD 720p, 1080p] (Хороший звук DUB, MVO) [ 7.33 GB ] Еще по одной / Druk / Another Round [2020 BDRip 720p] DUB [ BD RUS] bober100 Скачать
2 | 0
Фильмы 2019-2020 (Звук TS, Cam, VO, DVO) [ 2.9 GB ] Еще по одной / Another Round / Druk [2020 HDRip-AVC] [DVO] killermax2013 Скачать
1 | 0
Фильмы 2019-2020 [DVDrip, WEB-DLRip, HDrip] (DUB, MVO) [ 1.47 GB ] Еще по одной / Druk / Another Round [2020 BDRip] - [] Twi7ter Скачать
12 | 0
Фильмы 2019-2020 [DVDrip, WEB-DLRip, HDrip] (DUB, MVO) [ 1.46 GB ] Еще по одной / Druk / Another Round [2020 HDRip-AVC] от MediaBit Lithuania Скачать
1 | 0
Фильмы 2019-2020 [DVDrip, WEB-DLRip, HDrip] (DUB, MVO) [ 2.18 GB ] Еще по одной / Druk / Another Round [2020 BDRip] DUB [ BD RUS] bober100 Скачать
1 | 0

28-11-2019 20:33  

Отключить вcю реклaмy на сайте

15-10-2021 18:23 Еще по одной Скачать торрент  

Фильм классный, но описание не в темуpiratbit.org



    Дорогой пользователь! Огромная просьба, поблагодарите релизера, оцените раздачу и оставьте свои комментарий, если Вы скачали Еще по одной через торрент бесплатно!
    Комментировать посты могут только пользователи прошедшие не сложную регистрацию
    Показать сообщения:    

    Еще по одной через торрент
    Скачать бесплатно Еще по одной
    Еще по одной скачать торрент
    Еще по одной смотреть онлайн
    Cкачать фильм Еще по одной бесплатно
    Еще по одной скачать торрент в хорошем качестве
    Еще по одной смотреть онлайн бесплатно в хорошем качестве


    Вы не можете начинать темы
    Вы не можете отвечать на сообщения
    Вы не можете редактировать свои сообщения
    Вы не можете удалять свои сообщения
    Вы не можете голосовать в опросах
    Вы не можете прикреплять файлы к сообщениям
    Вы можете скачивать файлы