Anonymous, добрый день, присоединяйтесь к нам в Telegram!, здесь всегда актуальный адрес сайта, оперативная поддержка и многое другое!

>

5.5

iTunes

7.4

iTunes

7.9

iTunes

1

7.7

1 сезон

6.8

iTunes

7.3

1 сезон

13

6.7

1 сезон

8.3

RePack

30

Deluxe

pack

9.9

Лицензия

ВАЖНО

ИГРА 18+

pack

7.3

RePack

MK11

7.7

RePack

jed

7.8

RePack

fifa19

8.5

RePack

RDR2

RePack

NEED FOR SPEED™ PAYBACK

4 сезон

9 сезон

Бесстыжие 9 сезон

Все сериалы

все сериалы на PB.wtf

RePack

FAR CRY 5

Anonymous, добрый день, мы катастрофически не успеваем собрать деньги на оплату серверов, помогите нам пожалуйста 5,10,15р., для нас важна любая помощь . В качестве благодарности мы отключим Вам всю рекламу на сайте (укажите свой ник в строку Ваше имя)!

×
  
Magnet ссылка

Жена олигарха / Сезон: 1 / Серии: 1-11 из 17 (Мария Кравченко (II)) [2021, Комедия, WEB-DLRip-AVC] piratbit.org

Жена олигарха через торрент piratbit.org

Раздают: 2 [ 633 KB/s ] Качают: 6 [ 0 KB/s ]
Размер: 3.43 GB | Добавлен: 18 ч. назад | Торрент скачан:3 раза
Смотреть онлайн Жена олигарха | Скачать    Ребята, помогите собрать деньги на оплату серверов!!!

12-10-2021 04:33 Жена олигарха Скачать торрент  

Жена олигарха
Год выпуска: 2021
Страна: Россия
Студия: Кинокомпания "Keystone Production"
Жанр: Комедия
Продолжительность: ~ 00:25:00
Перевод: Не требуется
Субтитры: отсутствуют

Режиссер: Мария Кравченко (II)



В ролях: Елена Подкаминская, Маргарита Дьяченкова, Кай Алекс Гетц, Игорь Верник, Антон Филипенко, Владимир Гостюхин, Алексей Маклаков, Александр Дьяченко, Александр Обласов, Даниил Киселев, Константин Похмелов, Евгения Капралова, Алёна Ицкова, Сергей Марухин, Юлия Кубина, Александр Денисенко (II), Максим Арнаутов, Вадим Соснин, Олег Димидкин, Евгения Липская, Евгений Березовский, Наталия Поборцева, Михаил Попов (VI), Ольга Бузова, Никита Джигурда

Описание: Жизнь Альбины меняется в один миг: под угрозой ареста муж-олигарх бросает её, прихватив с собой все деньги. Всё, что осталось от супруга, — двое детей и российская фабрика на грани банкротства. Теперь Альбина вынуждена забыть о роскошной жизни в лондонском особняке и вспомнить то, что ей говорили на бизнес-курсах. Только начинать жизнь с чистого листа в провинциальном городке без гроша в кармане её никто не учил.

Качество: WEB-DLRip-AVC
Формат: MKV

Видео: MPEG-4 AVC, ~ 1600 Кбит/с, 1024x576, 25 кадр/с
Аудио: 48.0 kHz, AC3 Dolby Digital, 2/0 (L,R) ch, ~ 192 kbps
скриншот  скриншот  скриншот  скриншот  скриншот  

General
Unique ID : 232156143559878916062813502321187606779 (0xAEA7A598FAF145D0A28F8DFEB30FD0FB)
Complete name : F:\Жена олигарха.(2021).WEB-DLRip.(AVC).Files-x\01.Zhena.oligarha.(2021).WEB-DLRip.(AVC).by.Серый1779.Files-x.mkv
Format : Matroska
Format version : Version 2
File size : 331 MiB
Duration : 25 min 48 s
Overall bit rate : 1 793 kb/s
Encoded date : UTC 2021-10-11 18:26:01
Writing application : mkvmerge v7.8.0 ('River Man') 32bit built on Apr 3 2015 12:11:22
Writing library : libebml v1.3.1 + libmatroska v1.4.2

Video
ID : 1
Format : AVC
Format/Info : Advanced Video Codec
Format profile : High@L4.1
Format settings : CABAC / 9 Ref Frames
Format settings, CABAC : Yes
Format settings, RefFrames : 9 frames
Codec ID : V_MPEG4/ISO/AVC
Duration : 25 min 48 s
Bit rate : 1 600 kb/s
Width : 1 024 pixels
Height : 576 pixels
Display aspect ratio : 16:9
Frame rate mode : Constant
Frame rate : 25.000 FPS
Color space : YUV
Chroma subsampling : 4:2:0
Bit depth : 8 bits
Scan type : Progressive
Bits/(Pixel*Frame) : 0.109
Stream size : 289 MiB (87%)
Writing library : x264 core 146 r2538 121396c
Encoding settings : cabac=1 / ref=9 / deblock=1:-2:-1 / analyse=0x3:0x133 / me=umh / subme=9 / psy=1 / psy_rd=1.00:0.15 / mixed_ref=1 / me_range=32 / chroma_me=1 / trellis=2 / 8x8dct=1 / cqm=0 / deadzone=21,11 / fast_pskip=0 / chroma_qp_offset=-3 / threads=18 / lookahead_threads=3 / sliced_threads=0 / nr=0 / decimate=1 / interlaced=0 / bluray_compat=0 / constrained_intra=0 / bframes=9 / b_pyramid=2 / b_adapt=2 / b_bias=0 / direct=1 / weightb=1 / open_gop=0 / weightp=2 / keyint=250 / keyint_min=25 / scenecut=40 / intra_refresh=0 / rc=2pass / mbtree=0 / bitrate=1600 / ratetol=1.0 / qcomp=0.60 / qpmin=0 / qpmax=69 / qpstep=4 / cplxblur=20.0 / qblur=0.5 / ip_ratio=1.40 / pb_ratio=1.30 / aq=2:1.00
Default : Yes
Forced : No
Color range : Limited
Color primaries : BT.709
Transfer characteristics : BT.709
Matrix coefficients : BT.709

Audio
ID : 2
Format : AC-3
Format/Info : Audio Coding 3
Format settings, Endianness : Big
Codec ID : A_AC3
Duration : 25 min 48 s
Bit rate mode : Constant
Bit rate : 192 kb/s
Channel(s) : 2 channels
Channel positions : Front: L R
Sampling rate : 48.0 kHz
Frame rate : 31.250 FPS (1536 SPF)
Bit depth : 16 bits
Compression mode : Lossy
Stream size : 35.5 MiB (11%)
Service kind : Complete Main
Default : Yes
Forced : No

Внимание! Раздача ведётся путём добавления новых серий; при каждом добавлении создаётся новый торрент.
Чтобы начать докачку новой серии, пользователям необходимо сделать следующее:
1. Остановить скачивание;
2. Удалить старый торрент у себя из клиента (старые серии удалять не надо);
3. Скачать новый торрент и запустить его у себя в клиенте вместо старого, при этом указать клиенту путь в старую папку куда и должно происходить скачивание новых серий. Ваш клиент при этом должен произвести хеширование (проверку) старой папки и будет докачивать только те серии, которых у вас ещё нет. Старые серии при этом не удаляются, а продолжают раздаваться! Eсли вы уже удалили старые серии, то предотвратить повторную закачку старых серий можно, отжав галочку в соответствующих местах при запуске нового торрента.

piratbit.org



Скачать Жена олигарха через торрент https://b.radikal.ru/b38/2110/4f/96e45f9e06db.jpg Скачать, смотреть онлайн Жена олигарха бесплантно в хорошем качестве Описание: Жизнь Альбины меняется в один миг: под угрозой ареста муж-олигарх бросает её, прихватив с собой все деньги. Всё, что осталось от ... 10 10 6
Торрент: Зарегистрирован [2021-10-26 18:29] · скачан: 3 раз
Статус: √ проверено
Размер: 3.43 GB
Как cкачать? Как скачать Жена олигарха через торрент | UTorrent

% Раздел Тема Автор DL S | L
Наши сериалы [ 7.03 GB ] Жена олигарха / Сезон: 1 / Серии: 1-11 из 17 ) [2021 WEB-DL 1080p] bober100 Скачать
6 | 9
Наши сериалы [ 4.17 GB ] Жена олигарха / Сезон: 1 / Серии: 1-11 из 17 ) [2021 WEB-DL 720p] bober100 Скачать
3 | 4
Наши сериалы [ 3.76 GB ] Жена олигарха / Сезон: 1 / Серии: 1-11 из 17 ) [2021 WEB-DLRip] bober100 Скачать
2 | 3

28-11-2019 20:33  

Отключить всю рекламу на сайте

    Дорогой пользователь! Огромная просьба, поблагодарите релизера, оцените раздачу и оставьте свои комментарий, если Вы скачали Жена олигарха через торрент бесплатно!
    Комментировать посты могут только пользователи прошедшие не сложную регистрацию
    Показать сообщения:    

    Жена олигарха через торрент
    Скачать бесплатно Жена олигарха
    Жена олигарха скачать торрент
    Жена олигарха смотреть онлайн
    Cкачать фильм Жена олигарха бесплатно
    Жена олигарха скачать торрент в хорошем качестве
    Жена олигарха смотреть онлайн бесплатно в хорошем качестве


    Вы не можете начинать темы
    Вы не можете отвечать на сообщения
    Вы не можете редактировать свои сообщения
    Вы не можете удалять свои сообщения
    Вы не можете голосовать в опросах
    Вы не можете прикреплять файлы к сообщениям
    Вы можете скачивать файлы