Anonymous, доброй ночи, присоединяйтесь к нам в Telegram!, здесь всегда актуальный адрес сайта, оперативная поддержка и многое другое!

>

5.6

iTunes

7.4

iTunes

5.7

MVO

1

7.7

1 сезон

6.8

iTunes

7.3

1 сезон

13

6.7

1 сезон

8.3

RePack

30

ULTIMATE

pack

9.9

Лицензия

ВАЖНО

ИГРА 18+

pack

7.3

RePack

MK11

7.7

RePack

jed

7.8

RePack

fifa19

8.5

RePack

RDR2

RePack

NEED FOR SPEED™ PAYBACK

4 сезон

9 сезон

Бесстыжие 9 сезон

Все сериалы

все сериалы на PB.wtf

RePack

FAR CRY 5

Anonymous, доброй ночи, мы катастрофически не успеваем собрать деньги на оплату серверов, помогите нам пожалуйста 5,10,15р., для нас важна любая помощь . В качестве благодарности мы отключим Вам всю рекламу на сайте (укажите свой ник в строку Ваше имя)!

×
  
Magnet ссылка

Незнакомец / Dead in the Water (Нанея Мията) [2020, Триллер, WEB-DLRip-AVC] DUB [iTunes] piratbit.org

Незнакомец через торрент piratbit.org

Раздают: 5 [ 28 KB/s ]
Размер: 1.46 GB | Добавлен: 4 д. назад | Торрент скачан:57 раз
Смотреть онлайн Незнакомец | Скачать    Ребята, помогите собрать деньги на оплату серверов!!!

12-10-2021 05:10 Незнакомец Скачать торрент  

Незнакомец | Dead in the Water
Год выпуска: 2020
Страна: США
Студия: Lunar Field
Жанр: Триллер
Продолжительность: 01:31:08
Перевод: Дублированный | iTunes
Субтитры: Английские (Full)

Режиссер: Нанея Мията

rating

В ролях: Катрин Лидстоун, Энджела Галнер, Питер Порте, Сэм Крумрин, Майкл Блейк Крус

Описание: Две лучшие подруги решили вместе провести выходные за городом. Для этого они отправились в родительский домик одной из девушек, расположенный в лесу у озера. Однако их планы на одинокий отдых разрушил привлекательный незнакомец, который встретил девушек на прогулке по лесу. Молодой человек очаровал обеих красавиц и был приглашен ими в дом. Загадочный гость сначала украсил досуг подруг, потом вызвал накал страстей и заставил подруг сомневаться друг в друге. Но дальнейшие события заставляют девушек бороться уже не за дружбу или любовь, а за собственную жизнь.

Качество: WEB-DLRip-AVC
Формат: MKV

Видео: 1024x576 (16:9), 23.976 fps, MPEG-4 AVC ~ 1906 Kbps avg, 0.135 bit/pixel
Аудио: 48 kHz, AC3 Dolby Digital, 3/2 (L, C, R, l, r) + LFE ch, ~384 Kbps
скриншот  скриншот  скриншот  скриншот  скриншот  

x264 [info]: frame I:1029 Avg QP:12.65 size: 65200
x264 [info]: frame P:31677 Avg QP:15.75 size: 21242
x264 [info]: frame B:98397 Avg QP:16.58 size: 5718
x264 [info]: consecutive B-frames: 2.0% 2.0% 7.1% 54.6% 13.4% 15.2% 2.7% 1.2% 0.5% 1.1%
*********************************************************

Общее
Уникальный идентификатор : 194535979708062045194360189837770725295 (0x925A4450CF161FD9A30393841DEF97AF)
Полное имя : Dead.in.the.Water.2020.WEB-DLRip.1.46Gb.DD.5.1.x264.MegaPeer.mkv
Формат : Matroska
Версия формата : Version 4
Размер файла : 1,46 Гбайт
Продолжительность : 1 ч. 31 м.
Общий поток : 2 291 Кбит/сек
Название фильма : Незнакомец / Dead in the Water (2020) от MegaPeer
Дата кодирования : UTC 2021-10-12 04:58:14
Программа кодирования : mkvmerge v15.0.0 ('Duel with the Devil') 64-bit
Библиотека кодирования : libebml v1.3.5 + libmatroska v1.4.5
Обложка : Yes
Attachments : cover.jpg

Видео
Идентификатор : 1
Формат : AVC
Формат/Информация : Advanced Video Codec
Профиль формата : High@L4.1
Настройки формата : CABAC / 11 Ref Frames
Параметр CABAC формата : Да
Параметр RefFrames формата : 11 кадров
Идентификатор кодека : V_MPEG4/ISO/AVC
Продолжительность : 1 ч. 31 м.
Битрейт : 1 906 Кбит/сек
Ширина : 1 024 пикселя
Высота : 576 пикселей
Соотношение сторон : 16:9
Режим частоты кадров : Постоянный
Частота кадров : 23,976 кадра/сек
Цветовое пространство : YUV
Субдискретизация насыщенности : 4:2:0
Битовая глубина : 8 бит
Тип развёртки : Прогрессивная
Бит/(Пиксели*Кадры) : 0.135
Размер потока : 1,21 Гбайт (83%)
Заголовок : stillet@MegaPeer
Библиотека кодирования : x264 core 161 r3018 db0d417
Настройки программы : cabac=1 / ref=11 / deblock=1:-3:-3 / analyse=0x3:0x113 / me=umh / subme=10 / psy=1 / psy_rd=1.01:0.03 / mixed_ref=1 / me_range=48 / chroma_me=1 / trellis=2 / 8x8dct=1 / cqm=0 / deadzone=21,11 / fast_pskip=0 / chroma_qp_offset=-3 / threads=18 / lookahead_threads=3 / sliced_threads=0 / nr=0 / decimate=0 / interlaced=0 / bluray_compat=0 / constrained_intra=0 / bframes=9 / b_pyramid=2 / b_adapt=2 / b_bias=0 / direct=3 / weightb=1 / open_gop=0 / weightp=2 / keyint=240 / keyint_min=24 / scenecut=40 / intra_refresh=0 / rc_lookahead=40 / rc=2pass / mbtree=0 / bitrate=1906 / ratetol=1.0 / qcomp=0.60 / qpmin=0 / qpmax=69 / qpstep=4 / cplxblur=20.0 / qblur=0.5 / vbv_maxrate=50000 / vbv_bufsize=62500 / nal_hrd=none / filler=0 / ip_ratio=1.40 / pb_ratio=1.30 / aq=1:1.10
Язык : English
Default : Да
Forced : Нет

Аудио
Идентификатор : 2
Формат : AC-3
Формат/Информация : Audio Coding 3
Коммерческое название : Dolby Digital
Идентификатор кодека : A_AC3
Продолжительность : 1 ч. 31 м.
Вид битрейта : Постоянный
Битрейт : 384 Кбит/сек
Каналы : 6 каналов
Channel layout : L R C LFE Ls Rs
Частота : 48,0 КГц
Частота кадров : 31,250 кадров/сек (1536 SPF)
Метод сжатия : С потерями
Размер потока : 250 Мбайт (17%)
Заголовок : DUB | iTunes
Язык : Russian
Service kind : Complete Main
Default : Да
Forced : Нет

Текст
Идентификатор : 3
Формат : UTF-8
Идентификатор кодека : S_TEXT/UTF8
Идентификатор кодека/Информация : UTF-8 Plain Text
Продолжительность : 1 ч. 31 м.
Битрейт : 58 бит/сек
Count of elements : 1434
Размер потока : 39,1 Кбайт (0%)
Заголовок : Full-length
Язык : English
Default : Нет
Forced : Нет

piratbit.org



Скачать Незнакомец через торрент https://i115.fastpic.org/big/2021/1012/06/aad2ac8732b845f43c51fe68d8888a06.jpg Скачать, смотреть онлайн Незнакомец бесплантно в хорошем качестве Описание: Две лучшие подруги решили вместе провести выходные за городом. Для этого они отправились в родительский домик одной из девушек, ... 10 10 5
Торрент: Зарегистрирован [2021-10-12 05:10] · скачан: 57 раз
Статус: √ проверено
Размер: 1.46 GB
Как cкачать? Как скачать Незнакомец через торрент | UTorrent

% Раздел Тема Автор DL S | L
Фильмы (WEB-DL 720p, 1080p) [ 2.31 GB ] Незнакомец / Dead in the Water [2020 WEB-DL 720p] bober100 Скачать
5 | 0
Фильмы 2019-2020 [DVDrip, WEB-DLRip, HDrip] (DUB, MVO) [ 1.46 GB ] Незнакомец / Dead in the Water [2020 WEB-DLRip] bober100 Скачать
5 | 0

28-11-2019 20:33  

Отключить всю рекламу на сайте

    Дорогой пользователь! Огромная просьба, поблагодарите релизера, оцените раздачу и оставьте свои комментарий, если Вы скачали Незнакомец через торрент бесплатно!
    Комментировать посты могут только пользователи прошедшие не сложную регистрацию
    Показать сообщения:    

    Незнакомец через торрент
    Скачать бесплатно Незнакомец
    Незнакомец скачать торрент
    Незнакомец смотреть онлайн
    Cкачать фильм Незнакомец бесплатно
    Незнакомец скачать торрент в хорошем качестве
    Незнакомец смотреть онлайн бесплатно в хорошем качестве


    Вы не можете начинать темы
    Вы не можете отвечать на сообщения
    Вы не можете редактировать свои сообщения
    Вы не можете удалять свои сообщения
    Вы не можете голосовать в опросах
    Вы не можете прикреплять файлы к сообщениям
    Вы можете скачивать файлы