Anonymous, добрый вечер, присоединяйтесь к нам в Telegram!, здесь всегда актуальный адрес сайта, оперативная поддержка и многое другое!

>

5.5

iTunes

7.4

iTunes

7.9

iTunes

1

7.7

1 сезон

6.8

iTunes

7.3

1 сезон

13

6.7

1 сезон

8.3

RePack

30

Deluxe

pack

9.9

Лицензия

ВАЖНО

ИГРА 18+

pack

7.3

RePack

MK11

7.7

RePack

jed

7.8

RePack

fifa19

8.5

RePack

RDR2

RePack

NEED FOR SPEED™ PAYBACK

4 сезон

9 сезон

Бесстыжие 9 сезон

Все сериалы

все сериалы на PB.wtf

RePack

FAR CRY 5

Anonymous, добрый вечер, мы катастрофически не успеваем собрать деньги на оплату серверов, помогите нам пожалуйста 5,10,15р., для нас важна любая помощь . В качестве благодарности мы отключим Вам всю рекламу на сайте (укажите свой ник в строку Ваше имя)!

×
  
Magnet ссылка

О матерях / Madres (Райан Сарагоса) [2021, Ужасы, драма, WEB-DL 1080p] MVO [HDRezka Studio] piratbit.org

О матерях через торрент piratbit.org

Раздают: 2 [ 0 KB/s ]
Размер: 5.3 GB | Добавлен: 14 д. назад | Торрент скачан:30 раз
Смотреть онлайн О матерях | Скачать    Ребята, помогите собрать деньги на оплату серверов!!!

12-10-2021 14:41 О матерях Скачать торрент  

О матерях | Madres
Год выпуска: 2021
Страна: США
Студия: Amazon Studios, Blumhouse Productions
Жанр: Ужасы, драма
Продолжительность: 01:23:40
Перевод: Профессиональный (многоголосый) | HDRezka Studio
Субтитры: Русские (Forced (HDRezka), Full), английские, испанские, французские, немецкие, итальянские | AMZN

Режиссер: Райан Сарагоса

rating

В ролях: Эльпидия Каррильо, Теноч Уэрта, Керри Кехилл, Ариана Гуерра, Дженнифер Патино, Бриттон Уэбб, Эвелин Гонзалез, Рене Мена, Джейсон Бэйл, Эшли Льюис, Сарай Боррего, Джозеф А. Гарсиа, Роберт Ларривьер, Хэрлон Миллер

Описание: 1970-е. Глубоко беременная Диана вместе с мужем-мексиканцем селится в иммигрантской коммуне в Калифорнии. Муж занимается сельским хозяйством и постепенно вливается в коллектив, а неговорящая по-испански Диана чувствует себя изгоем. Проводя дни в одиночестве, женщина находит вещи предыдущих жильцов и начинает замечать, что с их новым домом что-то не так.

Качество: WEB-DL 1080p
Формат: MKV

Видео: MPEG-4 AVC, 7981 Kбит/с, 1920x800, 23.976 кадр/с
Аудио #1: Русский (АС3, 6 ch, 448 Кбит/с, 48.0 KHz)
Аудио #2: Английский (E-АС3, 6 ch, 640 Кбит/с, 48.0 KHz)
скриншот  скриншот  скриншот  скриншот  скриншот  

Источник: Madres.2021.1080p.AMZN.WEB.H264-NAISU
General
Unique ID : 199425661460113627811303593809867668678 (0x9607FC3D2DF9839CADAFF4EFE5D77CC6)
Complete name : Madres.2021.AMZN.WEB-DL.1080p.mkv
Format : Matroska
Format version : Version 4
File size : 5.30 GiB
Duration : 1 h 23 min
Overall bit rate : 9 072 kb/s
Encoded date : UTC 2021-10-12 13:22:11
Writing application : mkvmerge v7.1.0 ('Good Love') 64bit built on Jul 27 2014 13:06:55
Writing library : libebml v1.3.0 + libmatroska v1.4.1

Video
ID : 1
Format : AVC
Format/Info : Advanced Video Codec
Format profile : High@L4
Format settings : CABAC / 4 Ref Frames
Format settings, CABAC : Yes
Format settings, Reference fra : 4 frames
Codec ID : V_MPEG4/ISO/AVC
Duration : 1 h 23 min
Bit rate mode : Constant
Bit rate : 7 981 kb/s
Nominal bit rate : 10 000 kb/s
Width : 1 920 pixels
Height : 800 pixels
Display aspect ratio : 2.40:1
Frame rate mode : Constant
Frame rate : 23.976 (24000/1001) FPS
Color space : YUV
Chroma subsampling : 4:2:0
Bit depth : 8 bits
Scan type : Progressive
Bits/(Pixel*Frame) : 0.217
Stream size : 4.66 GiB (88%)
Language : English
Default : Yes
Forced : No
Color range : Limited
Color primaries : BT.709
Transfer characteristics : BT.709
Matrix coefficients : BT.709

Audio #1
ID : 2
Format : AC-3
Format/Info : Audio Coding 3
Commercial name : Dolby Digital
Codec ID : A_AC3
Duration : 1 h 23 min
Bit rate mode : Constant
Bit rate : 448 kb/s
Channel(s) : 6 channels
Channel layout : L R C LFE Ls Rs
Sampling rate : 48.0 kHz
Frame rate : 31.250 FPS (1536 SPF)
Compression mode : Lossy
Stream size : 268 MiB (5%)
Title : MVO | HDRezka Studio
Language : Russian
Service kind : Complete Main
Default : Yes
Forced : No

Audio #2
ID : 3
Format : E-AC-3
Format/Info : Enhanced AC-3
Commercial name : Dolby Digital Plus
Codec ID : A_EAC3
Duration : 1 h 23 min
Bit rate mode : Constant
Bit rate : 640 kb/s
Channel(s) : 6 channels
Channel layout : L R C LFE Ls Rs
Sampling rate : 48.0 kHz
Frame rate : 31.250 FPS (1536 SPF)
Compression mode : Lossy
Stream size : 383 MiB (7%)
Language : English
Service kind : Complete Main
Default : No
Forced : No

Text #1
ID : 4
Format : UTF-8
Codec ID : S_TEXT/UTF8
Codec ID/Info : UTF-8 Plain Text
Duration : 1 h 22 min
Bit rate : 11 b/s
Count of elements : 164
Stream size : 6.65 KiB (0%)
Title : Forced | HDRezka
Language : Russian
Default : Yes
Forced : No

Text #2
ID : 5
Format : UTF-8
Codec ID : S_TEXT/UTF8
Codec ID/Info : UTF-8 Plain Text
Duration : 1 h 23 min
Bit rate : 59 b/s
Count of elements : 739
Stream size : 36.3 KiB (0%)
Title : Russian
Language : Russian
Default : No
Forced : No

Text #3
ID : 6
Format : UTF-8
Codec ID : S_TEXT/UTF8
Codec ID/Info : UTF-8 Plain Text
Duration : 1 h 11 min
Bit rate : 3 b/s
Count of elements : 94
Stream size : 1.86 KiB (0%)
Title : English [Forced]
Language : English
Default : No
Forced : No

Text #4
ID : 7
Format : UTF-8
Codec ID : S_TEXT/UTF8
Codec ID/Info : UTF-8 Plain Text
Duration : 1 h 23 min
Bit rate : 45 b/s
Count of elements : 1154
Stream size : 27.6 KiB (0%)
Title : English
Language : English
Default : No
Forced : No

Text #5
ID : 8
Format : UTF-8
Codec ID : S_TEXT/UTF8
Codec ID/Info : UTF-8 Plain Text
Duration : 1 h 23 min
Bit rate : 37 b/s
Count of elements : 724
Stream size : 22.8 KiB (0%)
Title : German
Language : German
Default : No
Forced : No

Text #6
ID : 9
Format : UTF-8
Codec ID : S_TEXT/UTF8
Codec ID/Info : UTF-8 Plain Text
Duration : 1 h 23 min
Bit rate : 35 b/s
Count of elements : 734
Stream size : 21.4 KiB (0%)
Title : French
Language : French
Default : No
Forced : No

Text #7
ID : 10
Format : UTF-8
Codec ID : S_TEXT/UTF8
Codec ID/Info : UTF-8 Plain Text
Duration : 1 h 23 min
Bit rate : 32 b/s
Count of elements : 660
Stream size : 19.9 KiB (0%)
Title : European Spanish
Language : Spanish
Default : No
Forced : No

Text #8
ID : 11
Format : UTF-8
Codec ID : S_TEXT/UTF8
Codec ID/Info : UTF-8 Plain Text
Duration : 1 h 23 min
Bit rate : 36 b/s
Count of elements : 737
Stream size : 22.1 KiB (0%)
Title : Italian
Language : Italian
Default : No
Forced : No

piratbit.org



Скачать О матерях через торрент http://c.radikal.ru/c15/2110/82/d829c7a72f11.jpg Скачать, смотреть онлайн О матерях бесплантно в хорошем качестве Описание: 1970-е. Глубоко беременная Диана вместе с мужем-мексиканцем селится в иммигрантской коммуне в Калифорнии. Муж занимается сельским ... 10 10 3
Торрент: Зарегистрирован [2021-10-12 14:41] · скачан: 30 раз
Статус: √ проверено
Размер: 5.3 GB
Как cкачать? Как скачать О матерях через торрент | UTorrent

% Раздел Тема Автор DL S | L
Фильмы 2021 [DVDrip, WEB-DLRip, HDrip] (DUB, MVO) [ 1.47 GB ] О матерях / Madres [2021 WEB-DLRip] MVO [HDRezka Studio] bober100 Скачать
2 | 0
Фильмы 2021 [DVDrip, WEB-DLRip, HDrip] (DUB, MVO) [ 1.78 GB ] О матерях / Welcome to the Blumhouse: Madres [2021 WEB-DLRip-AVC] MVO [HDRezka Studio] от ExKinoRay Lithuania Скачать
2 | 0

28-11-2019 20:33  

Отключить всю рекламу на сайте

13-10-2021 04:58 О матерях Скачать торрент  

уточнить бы, насколько глубоко беременная?piratbit.org



    Дорогой пользователь! Огромная просьба, поблагодарите релизера, оцените раздачу и оставьте свои комментарий, если Вы скачали О матерях через торрент бесплатно!
    Комментировать посты могут только пользователи прошедшие не сложную регистрацию
    Показать сообщения:    

    О матерях через торрент
    Скачать бесплатно О матерях
    О матерях скачать торрент
    О матерях смотреть онлайн
    Cкачать фильм О матерях бесплатно
    О матерях скачать торрент в хорошем качестве
    О матерях смотреть онлайн бесплатно в хорошем качестве


    Вы не можете начинать темы
    Вы не можете отвечать на сообщения
    Вы не можете редактировать свои сообщения
    Вы не можете удалять свои сообщения
    Вы не можете голосовать в опросах
    Вы не можете прикреплять файлы к сообщениям
    Вы можете скачивать файлы