Anonymous, добрый день, присоединяйтесь к нам в Telegram!, здесь всегда актуальный адрес сайта, оперативная поддержка и многое другое!

>

5.5

iTunes

7.4

iTunes

7.9

iTunes

1

7.7

1 сезон

6.8

iTunes

7.3

1 сезон

13

6.7

1 сезон

8.3

RePack

30

Deluxe

pack

9.9

Лицензия

ВАЖНО

ИГРА 18+

pack

7.3

RePack

MK11

7.7

RePack

jed

7.8

RePack

fifa19

8.5

RePack

RDR2

RePack

NEED FOR SPEED™ PAYBACK

4 сезон

9 сезон

Бесстыжие 9 сезон

Все сериалы

все сериалы на PB.wtf

RePack

FAR CRY 5

Anonymous, добрый день, мы катастрофически не успеваем собрать деньги на оплату серверов, помогите нам пожалуйста 5,10,15р., для нас важна любая помощь . В качестве благодарности мы отключим Вам всю рекламу на сайте (укажите свой ник в строку Ваше имя)!

×
  
Magnet ссылка

Мистериум. Тьма в бутылке / Flaskepost fra P (Ханс Петтер Муланд) [2016, Детектив, криминал, триллер, BDRip 720p] DUB [iTunes] piratbit.org

Мистериум. Тьма в бутылке через торрент piratbit.org

Раздают: 6 [ 224 KB/s ]
Размер: 4.18 GB | Добавлен: 13 д. назад | Торрент скачан:115 раз
Смотреть онлайн Мистериум. Тьма в бутылке | Скачать    Ребята, помогите собрать деньги на оплату серверов!!!

13-10-2021 16:28 Мистериум. Тьма в бутылке Скачать торрент  

Мистериум. Тьма в бутылке | Flaskepost fra P
Год выпуска: 2016
Страна: Дания, Германия, Швеция, Норвегия
Выпущено: Det Danske Filminstitut, Film i Väst, TV2 Danmark
Жанр: Детектив, криминал, триллер
Продолжительность: 01:51:29
Перевод: Дублированный | iTunes
Субтитры: Русские (Full), английские, датские

Режиссер: Ханс Петтер Муланд

rating

В ролях: Николай Ли Каас, Фарес Фарес, Пол Сверре Валхейм Хаген, Якоб Ульрик Ломанн, Джохэнн Луиз Шмидт, Якоб Офтебро, Сигне Анастассиа Маннов, Сёрен Пильмарк, Михаэль Броструп, Мортен Кирксков, Лотта Андерсен, Бенжамин Киттер, Лаура Бро, Мерседес Кларо Шелин, Армин Роде

Описание: Выброшенная на берег моря бутылка с леденящим душу посланием, написанным восемь лет назад, привлекает внимание особого отдела полиции Копенгагена. За расследование берутся детективы Карл Мёрк и Ассад. Они выходят на след убийцы-психопата и раскрывают жуткую историю похищенных детей, об исчезновении которых никто не заявлял.

Качество: BDRip 720p
Формат: MKV

Видео: MPPEG-4 AVC, 4348 Кb/s, 1280x544
Аудио #1: Russian: 48 kHz, AC3 Dolby Digital, 3/2 (L, C, R, l, r) + LFE ch, ~384 Kbps | DUB | iTunes
Аудио #2: Danish: 48 kHz, AC3 Dolby Digital, 3/2 (L, C, R, l, r) + LFE ch, ~640 Kbps | Original
скриншот  скриншот  скриншот  скриншот  

Complete name : Misterium.Tma.v.butyilke.2016.BDRip.720p.ELEKTRI4KA.UNIONGANG.mkv
Format : Matroska
Format version : Version 4
File size : 4.18 GiB
Duration : 1 h 51 min
Overall bit rate : 5 374 kb/s
Movie name : Misterium.Tma.v.butyilke.2016.BDRip.720p.ELEKTRI4KA.UNIONGANG.
Encoded date : UTC 2021-10-13 09:01:21
Writing application : mkvmerge v8.3.0 ('Over the Horizon') 32bit
Writing library : libebml v1.3.1 + libmatroska v1.4.2

Video
ID : 1
Format : AVC
Format/Info : Advanced Video Codec
Format profile : High@L4.1
Format settings : CABAC / 12 Ref Frames
Format settings, CABAC : Yes
Format settings, Reference frames : 12 frames
Codec ID : V_MPEG4/ISO/AVC
Duration : 1 h 51 min
Bit rate : 4 348 kb/s
Width : 1 280 pixels
Height : 544 pixels
Display aspect ratio : 2.35:1
Frame rate mode : Constant
Frame rate : 24.000 FPS
Color space : YUV
Chroma subsampling : 4:2:0
Bit depth : 8 bits
Scan type : Progressive
Bits/(Pixel*Frame) : 0.260
Stream size : 3.39 GiB (81%)
Writing library : x264 core 142 r2431+42 c69a006 tMod [8-bit@all X86_64]
Encoding settings : cabac=1 / ref=12 / deblock=1:-3:-3 / analyse=0x3:0x133 / me=umh / subme=11 / psy=1 / fade_compensate=0.00 / psy_rd=1.05:1.00 / mixed_ref=1 / me_range=32 / chroma_me=1 / trellis=2 / 8x8dct=1 / cqm=0 / deadzone=21, 11 / fast_pskip=0 / chroma_qp_offset=-4 / threads=12 / lookahead_threads=2 / sliced_threads=0 / nr=0 / decimate=0 / interlaced=0 / bluray_compat=0 / constrained_intra=0 / fgo=0 / bframes=8 / b_pyramid=2 / b_adapt=2 / b_bias=0 / direct=3 / weightb=1 / open_gop=0 / weightp=2 / keyint=240 / keyint_min=24 / scenecut=40 / intra_refresh=0 / rc_lookahead=60 / rc=crf / mbtree=0 / crf=17.4000 / qcomp=0.60 / qpmin=0:0:0 / qpmax=69:69:69 / qpstep=4 / vbv_maxrate=40000 / vbv_bufsize=30000 / crf_max=0.0 / nal_hrd=none / filler=0 / ip_ratio=1.40 / pb_ratio=1.30 / aq=1:1.00 / aq-sensitivity=10.00 / aq-factor=1.00:1.00:1.00 / aq2=0 / aq3=0
Language : Danish
Default : Yes
Forced : No

Audio #1
ID : 2
Format : AC-3
Format/Info : Audio Coding 3
Commercial name : Dolby Digital
Codec ID : A_AC3
Duration : 1 h 51 min
Bit rate mode : Constant
Bit rate : 384 kb/s
Channel(s) : 6 channels
Channel layout : L R C LFE Ls Rs
Sampling rate : 48.0 kHz
Frame rate : 31.250 FPS (1536 SPF)
Compression mode : Lossy
Stream size : 306 MiB (7%)
Title : DUB (iTunes)
Language : Russian
Service kind : Complete Main
Default : Yes
Forced : Yes

Audio #2
ID : 3
Format : AC-3
Format/Info : Audio Coding 3
Commercial name : Dolby Digital
Codec ID : A_AC3
Duration : 1 h 51 min
Bit rate mode : Constant
Bit rate : 640 kb/s
Channel(s) : 6 channels
Channel layout : L R C LFE Ls Rs
Sampling rate : 48.0 kHz
Frame rate : 31.250 FPS (1536 SPF)
Compression mode : Lossy
Stream size : 510 MiB (12%)
Title : Original
Language : Danish
Service kind : Complete Main
Default : No
Forced : No

Text #1
ID : 4
Format : UTF-8
Codec ID : S_TEXT/UTF8
Codec ID/Info : UTF-8 Plain Text
Duration : 1 h 47 min
Bit rate : 68 b/s
Count of elements : 1213
Stream size : 53.5 KiB (0%)
Title : Russian (Grabomir)
Language : Russian
Default : No
Forced : No

Text #2
ID : 5
Format : UTF-8
Codec ID : S_TEXT/UTF8
Codec ID/Info : UTF-8 Plain Text
Duration : 1 h 50 min
Bit rate : 37 b/s
Count of elements : 854
Stream size : 30.4 KiB (0%)
Title : English
Language : English
Default : No
Forced : No

Text #3
ID : 6
Format : UTF-8
Codec ID : S_TEXT/UTF8
Codec ID/Info : UTF-8 Plain Text
Duration : 1 h 39 min
Bit rate : 5 b/s
Count of elements : 102
Stream size : 3.83 KiB (0%)
Title : Danish (Forced)
Language : Danish
Default : No
Forced : No

Text #4
ID : 7
Format : UTF-8
Codec ID : S_TEXT/UTF8
Codec ID/Info : UTF-8 Plain Text
Duration : 1 h 47 min
Bit rate : 42 b/s
Count of elements : 828
Stream size : 33.3 KiB (0%)
Title : Danish (SDH)
Language : Danish
Default : No
Forced : No

Menu
00:00:00.000 : :Chapter 01
00:09:48.540 : :Chapter 02
00:20:55.791 : :Chapter 03
00:30:47.166 : :Chapter 04
00:41:20.541 : :Chapter 05
00:53:17.625 : :Chapter 06
01:02:45.750 : :Chapter 07
01:12:56.875 : :Chapter 08
01:23:17.457 : :Chapter 09
01:33:34.166 : :Chapter 10
01:42:35.916 : :Chapter 11

piratbit.org



Скачать Мистериум. Тьма в бутылке через торрент https://pic1.kartinco.top/images/10/kp6fv.jpg Скачать, смотреть онлайн Мистериум. Тьма в бутылке бесплантно в хорошем качестве Описание: Выброшенная на берег моря бутылка с леденящим душу посланием, написанным восемь лет назад, привлекает внимание особого отдела ... 10 10 5
Торрент: Зарегистрирован [2021-10-13 16:28] · скачан: 115 раз
Статус: √ проверено
Размер: 4.18 GB
Как cкачать? Как скачать Мистериум. Тьма в бутылке через торрент | UTorrent

% Раздел Тема Автор DL S | L
T Фильмы 2016 [DVDrip, WEB-DLRip, HDrip] (DUB, MVO) [ 1.41 GB ] Мистериум. Тьма в бутылке / Flaskepost fra P [2016 экранизация BDRip] Любительский [GreenРай Studio] Twi7ter Скачать
1 | 0
Фильмы 2016 [DVDrip, WEB-DLRip, HDrip] (DUB, MVO) [ 1.46 GB ] Мистериум. Тьма в бутылке / Flaskepost fra P [2016 BDRip] bober100 Скачать
21 | 0
Фильмы [HD 720p, 1080p] (Хороший звук DUB, MVO) [ 12.02 GB ] Мистериум. Тьма в бутылке / Flaskepost fra P [2016 BDRip 1080p] bober100 Скачать
14 | 1
Фильмы с авторской озвучкой [ 2.03 GB ] Мистериум. Тьма в бутылке / Flaskepost fra P [2016 HDRip Авторский одноголосый "Ю.Немахов"] coc900 Скачать
1 | 0
T Фильмы (Blu-ray, BD-Remux, HDDVD) [ 20.38 GB ] Мистериум. Тьма в бутылке / Flaskepost fra P [2016 BDRemux 1080p] MVO Russian Mafia Скачать
2 | 0

28-11-2019 20:33  

Отключить всю рекламу на сайте

    Дорогой пользователь! Огромная просьба, поблагодарите релизера, оцените раздачу и оставьте свои комментарий, если Вы скачали Мистериум. Тьма в бутылке через торрент бесплатно!
    Комментировать посты могут только пользователи прошедшие не сложную регистрацию
    Показать сообщения:    

    Мистериум. Тьма в бутылке через торрент
    Скачать бесплатно Мистериум. Тьма в бутылке
    Мистериум. Тьма в бутылке скачать торрент
    Мистериум. Тьма в бутылке смотреть онлайн
    Cкачать фильм Мистериум. Тьма в бутылке бесплатно
    Мистериум. Тьма в бутылке скачать торрент в хорошем качестве
    Мистериум. Тьма в бутылке смотреть онлайн бесплатно в хорошем качестве


    Вы не можете начинать темы
    Вы не можете отвечать на сообщения
    Вы не можете редактировать свои сообщения
    Вы не можете удалять свои сообщения
    Вы не можете голосовать в опросах
    Вы не можете прикреплять файлы к сообщениям
    Вы можете скачивать файлы