Anonymous, добрый вечер, присоединяйтесь к нам в Telegram!, здесь всегда актуальный адрес сайта, оперативная поддержка и многое другое!

>

5.5

iTunes

7.4

iTunes

7.9

iTunes

1

7.7

1 сезон

6.8

iTunes

7.3

1 сезон

13

6.7

1 сезон

8.3

RePack

30

Deluxe

pack

9.9

Лицензия

ВАЖНО

ИГРА 18+

pack

7.3

RePack

MK11

7.7

RePack

jed

7.8

RePack

fifa19

8.5

RePack

RDR2

RePack

NEED FOR SPEED™ PAYBACK

4 сезон

9 сезон

Бесстыжие 9 сезон

Все сериалы

все сериалы на PB.wtf

RePack

FAR CRY 5

Anonymous, добрый вечер, мы катастрофически не успеваем собрать деньги на оплату серверов, помогите нам пожалуйста 5,10,15р., для нас важна любая помощь . В качестве благодарности мы отключим Вам всю рекламу на сайте (укажите свой ник в строку Ваше имя)!

×
  
Magnet ссылка

Паранормальная тюрьма / Paranormal Prison (Брайан Джаггер) [2021, Ужасы, триллер, WEB-DL 1080p] MVO (rus, ukr) [iTunes] piratbit.org

Паранормальная тюрьма через торрент piratbit.org

Раздают: 3 [ 0 KB/s ]
Размер: 3.02 GB | Добавлен: 13 д. назад | Торрент скачан:92 раза
Смотреть онлайн Паранормальная тюрьма | Скачать    Ребята, помогите собрать деньги на оплату серверов!!!

13-10-2021 18:06 Паранормальная тюрьма Скачать торрент  

Паранормальная тюрьма | Paranormal Prison
Год выпуска: 2021
Страна: США
Студия: Blue Banner Films, HJU Group
Жанр: Ужасы, триллер
Продолжительность: 01:10:34
Перевод: Профессиональный (многоголосый) | iTunes
Субтитры: отсутствуют

Режиссер: Брайан Джаггер

rating

В ролях: Тодд Хаберкорн, Пэрис Уорнер, Дон Шанкс, Corynn Treadwell, Nyk Fry, Brian Telestai, Сара С. Паттерсон, Скотт Билз, Истон Лэй

Описание: Группа YouTube-блогеров, ведущих малоизвестный канал с расследованиями паранормальных явлений, решает провести ночь в закрытой тюрьме для опасных преступников, которая подлежит сносу. Это их последней шанс создать успешное видео и раскрыть тайну, долгое время наводившую ужас на поклонников мистики.

Качество: WEB-DL 1080p
Формат: MKV

Видео: MPEG-4 AVC, 5175 Кбит/с, 1908x1068, 23.976 fps
Аудио: AC3, 48 kHz, 6 ch, ~384.00 kbps avg | русский | MVO | iTunes
Аудио: AC3, 48 kHz, 2 ch, ~192.00 kbps avg | украинский | MVO | iTunes
Аудио: AC3, 48 kHz, 6 ch, ~384.00 kbps avg | английский
скриншот  скриншот  скриншот  скриншот  

Complete name: Paranormalnaya.tyurma.2021.WEB-DL.1080p.ELEKTRI4KA.UNIONGANG.mkv
Format: Matroska
Format version: Version 4
File size: 3.02 GiB
Duration: 1 h 10 min
Overall bit rate: 6 137 kb/s
Movie name: Paranormalnaya.tyurma.2021.WEB-DL.1080p.ELEKTRI4KA.UNIONGANG.
Encoded date: UTC 2021-10-13 16:43:36
Writing application: mkvmerge v8.3.0 ('Over the Horizon') 32bit
Writing library: libebml v1.3.1 + libmatroska v1.4.2

Video
ID: 1
Format: AVC
Format/Info: Advanced Video Codec
Format profile: High@L4
Format settings: CABAC / 4 Ref Frames
Format settings, CABAC: Yes
Format settings, Reference frames: 4 frames
Codec ID: V_MPEG4/ISO/AVC
Duration: 1 h 10 min
Bit rate: 5 175 kb/s
Width: 1 908 pixels
Height: 1 068 pixels
Display aspect ratio: 16:9
Frame rate mode: Constant
Frame rate: 23.976 (24000/1001) FPS
Color space: YUV
Chroma subsampling: 4:2:0
Bit depth: 8 bits
Scan type: Progressive
Bits/(Pixel*Frame): 0.106
Stream size: 2.55 GiB (84%)
Language: English
Default: Yes
Forced: No
Color range: Limited
Color primaries: BT.709
Transfer characteristics: BT.709
Matrix coefficients: BT.709

Audio #1
ID: 2
Format: AC-3
Format/Info: Audio Coding 3
Commercial name: Dolby Digital
Codec ID: A_AC3
Duration: 1 h 10 min
Bit rate mode: Constant
Bit rate: 384 kb/s
Channel(s): 6 channels
Channel layout: L R C LFE Ls Rs
Sampling rate: 48.0 kHz
Frame rate: 31.250 FPS (1536 SPF)
Compression mode: Lossy
Delay relative to video: -42 ms
Stream size: 194 MiB (6%)
Title: MVO (iTunes)
Language: Russian
Service kind: Complete Main
Default: Yes
Forced: Yes

Audio #2
ID: 3
Format: AC-3
Format/Info: Audio Coding 3
Commercial name: Dolby Digital
Codec ID: A_AC3
Duration: 1 h 10 min
Bit rate mode: Constant
Bit rate: 192 kb/s
Channel(s): 2 channels
Channel layout: L R
Sampling rate: 48.0 kHz
Frame rate: 31.250 FPS (1536 SPF)
Compression mode: Lossy
Delay relative to video: -42 ms
Stream size: 96.9 MiB (3%)
Title: MVO (iTunes)
Language: Ukrainian
Service kind: Complete Main
Default: No
Forced: No

Audio #3
ID: 4
Format: AC-3
Format/Info: Audio Coding 3
Commercial name: Dolby Digital
Codec ID: A_AC3
Duration: 1 h 10 min
Bit rate mode: Constant
Bit rate: 384 kb/s
Channel(s): 6 channels
Channel layout: L R C LFE Ls Rs
Sampling rate: 48.0 kHz
Frame rate: 31.250 FPS (1536 SPF)
Compression mode: Lossy
Delay relative to video: -42 ms
Stream size: 194 MiB (6%)
Title: Original
Language: English
Service kind: Complete Main
Default: No
Forced: No

Menu
00:00:00.000: en:1
00:08:22.000: en:2
00:19:39.000: en:3
00:30:20.000: en:4
00:40:10.000: en:5
00:50:11.000: en:6
01:01:19.000: en:7
01:07:47.000: en:8

piratbit.org



Скачать Паранормальная тюрьма через торрент https://i115.fastpic.org/big/2021/1013/94/3be27f00fb86540ef5258b860c096394.jpg Скачать, смотреть онлайн Паранормальная тюрьма бесплантно в хорошем качестве Описание: Группа YouTube-блогеров, ведущих малоизвестный канал с расследованиями паранормальных явлений, решает провести ночь в закрытой ... 8.2 10 5
Торрент: Зарегистрирован [2021-10-13 18:06] · скачан: 92 раз
Статус: √ проверено
Размер: 3.02 GB
Как cкачать? Как скачать Паранормальная тюрьма через торрент | UTorrent

% Раздел Тема Автор DL S | L
Фильмы 2021 [DVDrip, WEB-DLRip, HDrip] (DUB, MVO) [ 1.78 GB ] Паранормальная тюрьма / Paranormal Prison [2021 WEB-DLRip-AVC] MVO от ExKinoRay Lithuania Скачать
6 | 0
Фильмы 2021 [DVDrip, WEB-DLRip, HDrip] (DUB, MVO) [ 1.37 GB ] Паранормальная тюрьма / Paranormal Prison [2021 WEB-DLRip] MVO bober100 Скачать
4 | 0

28-11-2019 20:33  

Отключить всю рекламу на сайте

17-10-2021 22:33 Паранормальная тюрьма Скачать торрент  

Тупорылая херняpiratbit.org



18-10-2021 15:22 Паранормальная тюрьма Скачать торрент  

Первый скрин зачет piratbit.org



    Дорогой пользователь! Огромная просьба, поблагодарите релизера, оцените раздачу и оставьте свои комментарий, если Вы скачали Паранормальная тюрьма через торрент бесплатно!
    Комментировать посты могут только пользователи прошедшие не сложную регистрацию
    Показать сообщения:    

    Паранормальная тюрьма через торрент
    Скачать бесплатно Паранормальная тюрьма
    Паранормальная тюрьма скачать торрент
    Паранормальная тюрьма смотреть онлайн
    Cкачать фильм Паранормальная тюрьма бесплатно
    Паранормальная тюрьма скачать торрент в хорошем качестве
    Паранормальная тюрьма смотреть онлайн бесплатно в хорошем качестве


    Вы не можете начинать темы
    Вы не можете отвечать на сообщения
    Вы не можете редактировать свои сообщения
    Вы не можете удалять свои сообщения
    Вы не можете голосовать в опросах
    Вы не можете прикреплять файлы к сообщениям
    Вы можете скачивать файлы