Anonymous, добрый день, присоединяйтесь к нам в Telegram!, здесь всегда актуальный адрес сайта, оперативная поддержка и многое другое!

>

5.6

iTunes

7.4

iTunes

5.7

MVO

1

7.7

1 сезон

6.8

iTunes

7.3

1 сезон

13

6.7

1 сезон

8.3

RePack

30

ULTIMATE

pack

9.9

Лицензия

ВАЖНО

ИГРА 18+

pack

7.3

RePack

MK11

7.7

RePack

jed

7.8

RePack

fifa19

8.5

RePack

RDR2

RePack

NEED FOR SPEED™ PAYBACK

4 сезон

9 сезон

Бесстыжие 9 сезон

Все сериалы

все сериалы на PB.wtf

RePack

FAR CRY 5

Anonymous, добрый день, мы катастрофически не успеваем собрать деньги на оплату серверов, помогите нам пожалуйста 5,10,15р., для нас важна любая помощь . В качестве благодарности мы отключим Вам всю рекламу на сайте (укажите свой ник в строку Ваше имя)!

×
  
Magnet ссылка

Босс-молокосос 2 / The Boss Baby: Family Business (Том МакГрат) [2021, Мультфильм, комедия, приключения, семейный, BD Remux 1080p] DUB [Пифагор] piratbit.org

Босс-молокосос 2 через торрент piratbit.org

Раздают: 8 [ 6 MB/s ]
Размер: 26.17 GB | Добавлен: 3 д. назад | Торрент скачан:32 раза
Смотреть онлайн Босс-молокосос 2 | Скачать    Ребята, помогите собрать деньги на оплату серверов!!!

13-10-2021 21:49 Босс-молокосос 2 Скачать торрент  

Босс-молокосос 2
The Boss Baby: Family Business

Год выпуска: 2021
Страна: США
Студия: DreamWorks Animation
Жанр: Мультфильм, комедия, приключения, семейный
Продолжительность: 01:47:12
Перевод: Дублированный | Пифагор
Субтитры: Русские (2 x Full), английские

Режиссер: Том МакГрат

rating

В ролях: Алек Болдуин, Эми Седарис, Джеймс Марсден, Джефф Голдблюм, Лиза Кудроу, Ева Лонгория, Джеймс МакГрат, Ариана Гринблатт, Джимми Киммел

Описание: Братья Темплтон выросли и отдалились друг от друга. Но все меняется с появлением нового босса-молокососа с суперсовременным подходом, который воссоединяет семью и вдохновляет героев на новые бизнес-свершения.

Качество: BD Remux 1080p
Формат: MKV

Видео: MPEG-4 AVC, 1920x1080, 30.3 Mbit/s, 23.976 fps
Аудио #01: 48 kHz, E-AC3, 5.1, 448 Kbps | Дублированный | Пифагор | RUS |
Аудио #02: 48 kHz, AC3, 5.1, 448 Kbps | Дублированный | Пифагор | RUS |
Аудио #03: 48 kHz, TrueHD, 7.1, 3200 Kbps | Оригинал | ENG |
Аудио #04: 48 kHz, AC3, 5.1, 448 Kbps | Оригинал | ENG |
скриншот  скриншот  скриншот  скриншот  скриншот  

General
Unique ID : 92150740990683275325221304639462581450 (0x4553964F4670C9BAFC84BD4A092424CA)
Complete name : E:VideoThe.Boss.Baby.Family.Business.2021.BDREMUX.1080p.seleZen.mkv
Format : Matroska
Format version : Version 4
File size : 26.2 GiB
Duration : 1 h 47 min
Overall bit rate mode : Variable
Overall bit rate : 34.9 Mb/s
Movie name : The Boss Bab Family Business 2021 from seleZen
Encoded date : UTC 2021-10-13 21:39:08
Writing application : mkvmerge v59.0.0 ('Shining Star') 64-bit
Writing library : libebml v1.4.2 + libmatroska v1.6.4

Video
ID : 1
ID in the original source medium : 4113 (0x1011)
Format : AVC
Format/Info : Advanced Video Codec
Format profile : High@L4.1
Format settings : CABAC / 2 Ref Frames
Format settings, CABAC : Yes
Format settings, Reference frames : 2 frames
Codec ID : V_MPEG4/ISO/AVC
Duration : 1 h 47 min
Bit rate mode : Variable
Bit rate : 30.3 Mb/s
Width : 1 920 pixels
Height : 1 080 pixels
Display aspect ratio : 16:9
Frame rate mode : Constant
Frame rate : 23.976 (24000/1001) FPS
Color space : YUV
Chroma subsampling : 4:2:0
Bit depth : 8 bits
Scan type : Progressive
Bits/(Pixel*Frame) : 0.610
Stream size : 22.7 GiB (87%)
Language : English
Default : No
Forced : No
Original source medium : Blu-ray

Audio #1
ID : 2
Format : E-AC-3
Format/Info : Enhanced AC-3
Commercial name : Dolby Digital Plus
Codec ID : A_EAC3
Duration : 1 h 47 min
Bit rate mode : Constant
Bit rate : 448 kb/s
Channel(s) : 6 channels
Channel layout : L R C LFE Ls Rs
Sampling rate : 48.0 kHz
Frame rate : 31.250 FPS (1536 SPF)
Compression mode : Lossy
Stream size : 344 MiB (1%)
Title : Dub
Language : Russian
Service kind : Complete Main
Default : Yes
Forced : Yes

Audio #2
ID : 3
Format : AC-3
Format/Info : Audio Coding 3
Commercial name : Dolby Digital
Codec ID : A_AC3
Duration : 1 h 47 min
Bit rate mode : Constant
Bit rate : 448 kb/s
Channel(s) : 6 channels
Channel layout : L R C LFE Ls Rs
Sampling rate : 48.0 kHz
Frame rate : 31.250 FPS (1536 SPF)
Compression mode : Lossy
Stream size : 344 MiB (1%)
Title : Dub
Language : Russian
Service kind : Complete Main
Default : No
Forced : No

Audio #3
ID : 4
ID in the original source medium : 4352 (0x1100)
Format : MLP FBA 16-ch
Format/Info : Meridian Lossless Packing FBA with 16-channel presentation
Commercial name : Dolby TrueHD with Dolby Atmos
Codec ID : A_TRUEHD
Duration : 1 h 47 min
Bit rate mode : Variable
Bit rate : 3 200 kb/s
Maximum bit rate : 5 106 kb/s
Channel(s) : 8 channels
Channel layout : L R C LFE Ls Rs Lb Rb
Sampling rate : 48.0 kHz
Frame rate : 1 200.000 FPS (40 SPF)
Bit depth : 24 bits
Compression mode : Lossless
Stream size : 2.40 GiB (9%)
Title : Original
Language : English
Default : No
Forced : No
Original source medium : Blu-ray
Number of dynamic objects : 11
Bed channel count : 1 channel
Bed channel configuration : LFE

Audio #4
ID : 5
ID in the original source medium : 4352 (0x1100)
Format : AC-3
Format/Info : Audio Coding 3
Commercial name : Dolby Digital
Codec ID : A_AC3
Duration : 1 h 47 min
Bit rate mode : Constant
Bit rate : 448 kb/s
Channel(s) : 6 channels
Channel layout : L R C LFE Ls Rs
Sampling rate : 48.0 kHz
Frame rate : 31.250 FPS (1536 SPF)
Compression mode : Lossy
Stream size : 344 MiB (1%)
Language : English
Service kind : Complete Main
Default : No
Forced : No
Original source medium : Blu-ray

Text #1
ID : 6
Format : UTF-8
Codec ID : S_TEXT/UTF8
Codec ID/Info : UTF-8 Plain Text
Duration : 1 h 38 min
Bit rate : 131 b/s
Count of elements : 1815
Stream size : 94.9 KiB (0%)
Title : Full v.1
Language : Russian
Default : No
Forced : No

Text #2
ID : 7
Format : UTF-8
Codec ID : S_TEXT/UTF8
Codec ID/Info : UTF-8 Plain Text
Duration : 1 h 37 min
Bit rate : 129 b/s
Count of elements : 1945
Stream size : 92.6 KiB (0%)
Title : Full v.2
Language : Russian
Default : No
Forced : No

Text #3
ID : 8
Format : UTF-8
Codec ID : S_TEXT/UTF8
Codec ID/Info : UTF-8 Plain Text
Duration : 1 h 45 min
Bit rate : 83 b/s
Count of elements : 2462
Stream size : 65.1 KiB (0%)
Language : English
Default : No
Forced : No

Menu
00:00:00.000 : Chapter 01
00:04:18.383 : Chapter 02
00:09:50.673 : Chapter 03
00:13:43.364 : Chapter 04
00:19:51.816 : Chapter 05
00:24:55.119 : Chapter 06
00:29:12.125 : Chapter 07
00:34:22.018 : Chapter 08
00:38:09.245 : Chapter 09
00:44:36.299 : Chapter 10
00:51:25.124 : Chapter 11
01:00:47.853 : Chapter 12
01:04:54.474 : Chapter 13
01:08:08.209 : Chapter 14
01:13:27.403 : Chapter 15
01:18:38.172 : Chapter 16
01:22:44.418 : Chapter 17
01:27:13.437 : Chapter 18
01:35:06.701 : Chapter 19
01:38:13.721 : Chapter 20

piratbit.org



Скачать Босс-молокосос 2 через торрент https://d.radikal.ru/d10/2110/be/323e8b99cf04.jpg Скачать, смотреть онлайн Босс-молокосос 2 бесплантно в хорошем качестве Описание: Братья Темплтон выросли и отдалились друг от друга. Но все меняется с появлением нового босса-молокососа с суперсовременным ... 10 10 3
Торрент: Зарегистрирован [2021-10-13 21:49] · скачан: 32 раз
Статус: √ проверено
Размер: 26.17 GB
Как cкачать? Как скачать Босс-молокосос 2 через торрент | UTorrent

% Раздел Тема Автор DL S | L
Иностранные мультфильмы [ 1.46 GB ] Босс-молокосос 2 / The Boss Baby: Family Business [2021 Мультфильм BDRip] - [ / Пифагор] Twi7ter Скачать
88 | 11
Иностранные мультфильмы [ 1.46 GB ] Босс-молокосос 2 / The Boss Baby: Family Business [2021 Мультфильм WEB-DLRip ] DUB [Пифагор] bober100 Скачать
20 | 0
Иностранные мультфильмы [ 1.46 GB ] Босс-молокосос 2 / The Boss Baby: Family Business [2021 Мультфильм BDRip] DUB [Пифагор] bober100 Скачать
11 | 0
Иностранные мультфильмы [ 746 MB ] Босс-молокосос 2 / The Boss Baby: Family Business [2021 Мультфильм BDRip] DUB [Пифагор] bober100 Скачать
2 | 0
Зарубежные Мультфильмы (WEB-DL 720p, 1080p) [ 5.6 GB ] Босс-молокосос 2 / The Boss Baby: Family Business [2021 Мультфильм WEB-DL 1080p ] DUB [Пифагор] bober100 Скачать
30 | 2
Ultra HD (UHD: 2K, 4K, 8K) [ 40.75 GB ] Босс-молокосос 2 / The Boss Baby: Family Business [2021 Мультфильм UHD BDRemux 2160p ] DUB [Пифагор] bober100 Скачать
2 | 1
Ultra HD (UHD: 2K, 4K, 8K) [ 31.62 GB ] Босс-молокосос 2 / The Boss Baby: Family Business [2021 Мультфильм UHD BDRemux 2160p ] DUB [Пифагор] bober100 Скачать
6 | 1

28-11-2019 20:33  

Отключить всю рекламу на сайте

    Дорогой пользователь! Огромная просьба, поблагодарите релизера, оцените раздачу и оставьте свои комментарий, если Вы скачали Босс-молокосос 2 через торрент бесплатно!
    Комментировать посты могут только пользователи прошедшие не сложную регистрацию
    Показать сообщения:    

    Босс-молокосос 2 через торрент
    Скачать бесплатно Босс-молокосос 2
    Босс-молокосос 2 скачать торрент
    Босс-молокосос 2 смотреть онлайн
    Cкачать фильм Босс-молокосос 2 бесплатно
    Босс-молокосос 2 скачать торрент в хорошем качестве
    Босс-молокосос 2 смотреть онлайн бесплатно в хорошем качестве


    Вы не можете начинать темы
    Вы не можете отвечать на сообщения
    Вы не можете редактировать свои сообщения
    Вы не можете удалять свои сообщения
    Вы не можете голосовать в опросах
    Вы не можете прикреплять файлы к сообщениям
    Вы можете скачивать файлы