Всегда рабочее зеркало без VPN и Proxy просто перед .vidak.icu напиши любое слово или цифру, Пример http://vll.vidak.icu

>

7.4

iTunes

7.4

2 сезон

6.6

iTunes

1

6.9

1 сезон

7.2

iTunes

6.0

MVO

13

6.1

iTunes

8.3

Пиратка

30

ULTIMATE

pack

9.9

Лицензия

ВАЖНО

ИГРА 18+

pack

7.3

RePack

MK11

7.7

RePack

jed

7.8

RePack

fifa19

8.5

RePack

RDR2

RePack

NEED FOR SPEED™ PAYBACK

1 сезон

9 сезон

Бесстыжие 9 сезон

Все сериалы

все сериалы на PB.wtf

RePack

FAR CRY 5

Anonymous, добрый вечер, мы катастрофически не успеваем собрать деньги на оплату серверов, помогите нам пожалуйста 5,10,15р., для нас важна любая помощь . В качестве благодарности мы отключим Вам всю рекламу на сайте (укажите свой ник в строку Ваше имя)!

×
  
Magnet ссылка

Чаки / Chucky / Сезон 1 / Серии: 1-8 из 8 (Самир Реэм, Дермотт Даунс, Дон Манчини) [2021, Ужасы, WEB-DLRip на КПК] [DVO] (Кубик в Кубе) piratbit.org

Чаки через торрент piratbit.org

Размер: 1.74 GB | Добавлен: 1 мес. 19 д. назад | Торрент скачан:8 раз
Смотреть онлайн Чаки | Скачать    Ребята, помогите собрать деньги на оплату серверов!!!

15-10-2021 18:12 Чаки Скачать торрент  

Чаки / Chucky

Год выпуска: 2021

Страна: Канада, США
Жанр: ужасы
Продолжительность: 8 x ~ 00:45:00
Перевод: профессиональный (двухголосый, закадровый) [Кубик в Кубе | C цензурой]
Субтитры: нет
Оригинальная аудиодорожка: нет

Режиссер: Самир Реэм, Дермотт Даунс, Дон Манчини
В ролях: Закари Артур, Брэд Дуриф, Карина Баттрик, Алекс Винсент, Кристин Элиз, Бьоргвин Арнарсон, Аливия Элин Линд, Тео Брионес, Яна Пек, Давид Кольсмит

Описание: Злобная кукла Чаки вновь начинает терроризировать жителей американских пригородов.



Релиз от:
Рип от: Страна

Качество: WEB-DLRip
Формат: MP4
Видео: AVC, 640x320, 580 kbps, 25 fps
Аудио: AAC, 2 ch, 48,0 kHz, 128 Kbps
Общее
Полное имя : D:\Кино\Chucky.S01.2021\Chucky.S01.E01.2021.mp4
Формат : MPEG-4
Профиль формата : Base Media
Идентификатор кодека : isom
Размер файла : 227 Мбайт
Продолжительность : 44 м.
Режим общего битрейта : Переменный
Общий поток : 712 Кбит/сек
Дата кодирования : UTC 2021-10-15 07:26:59
Дата пометки : UTC 2021-10-15 07:26:59

Видео
Идентификатор : 1
Формат : AVC
Формат/Информация : Advanced Video Codec
Профиль формата : High@L2.2
Параметр CABAC формата : Да
Параметр ReFrames формата : 9 кадров
Идентификатор кодека : avc1
Идентификатор кодека/Информация : Advanced Video Coding
Продолжительность : 44 м.
Битрейт : 580 Кбит/сек
Максимальный битрейт : 3696 Кбит/сек
Ширина : 640 пикселей
Высота : 320 пикселей
Соотношение сторон : 2,000
Режим частоты кадров : Постоянный
Частота кадров : 25,000 кадров/сек
Цветовое пространство : YUV
Субдискретизация насыщенности : 4:2:0
Битовая глубина : 8 бит
Тип развёртки : Прогрессивная
Бит/(Пиксели*Кадры) : 0.113
Размер потока : 185 Мбайт (81%)
Библиотека кодирования : x264 core 125 r2200 999b753
Настройки программы : cabac=1 / ref=9 / deblock=1:-1:-1 / analyse=0x3:0x133 / me=umh / subme=8 / psy=1 / psy_rd=1.00:0.10 / mixed_ref=1 / me_range=24 / chroma_me=1 / trellis=2 / 8x8dct=1 / cqm=0 / deadzone=21,11 / fast_pskip=0 / chroma_qp_offset=-3 / threads=6 / lookahead_threads=1 / sliced_threads=0 / nr=0 / decimate=1 / interlaced=0 / bluray_compat=0 / constrained_intra=0 / bframes=8 / b_pyramid=2 / b_adapt=2 / b_bias=0 / direct=3 / weightb=1 / open_gop=0 / weightp=2 / keyint=250 / keyint_min=25 / scenecut=40 / intra_refresh=0 / rc_lookahead=50 / rc=2pass / mbtree=1 / bitrate=580 / ratetol=1.0 / qcomp=0.60 / qpmin=0 / qpmax=69 / qpstep=4 / cplxblur=20.0 / qblur=0.5 / ip_ratio=1.40 / aq=1:1.00
Дата кодирования : UTC 2021-10-15 07:26:59
Дата пометки : UTC 2021-10-15 07:27:04

Аудио
Идентификатор : 2
Формат : AAC
Формат/Информация : Advanced Audio Codec
Профиль формата : LC
Идентификатор кодека : 40
Продолжительность : 44 м.
Вид битрейта : Переменный
Битрейт : 128 Кбит/сек
Максимальный битрейт : 133 Кбит/сек
Каналы : 2 канала
Расположение каналов : Front: L R
Частота : 48,0 КГц
Метод сжатия : С потерями
Размер потока : 40,7 Мбайт (18%)
Дата кодирования : UTC 2021-10-15 07:27:03
Дата пометки : UTC 2021-10-15 07:27:04
piratbit.org



Скачать Чаки через торрент https://a.radikal.ru/a06/2110/8c/c02baa62ef1f.jpg Скачать, смотреть онлайн Чаки бесплантно в хорошем качестве Описание: Злобная кукла Чаки вновь начинает терроризировать жителей американских пригородов. Релиз от: Рип от: ... 5 10 1
Info! Золотая раздача, скачанное не засчитывается.
Торрент: Зарегистрирован [2021-12-09 13:44] · скачан: 8 раз
Статус: √ проверено
Размер: 1.74 GB
Как cкачать? Как скачать Чаки через торрент | UTorrent

% Раздел Тема Автор DL S | L
Зарубежные сериалы [ 23.85 GB ] Чаки / Chucky / Сезон: 1 / Серии: 1-8 из 8 [2021 WEB-DL 1080p] [MVO] + [DVO] killermax2013 Скачать
1 | 1
Зарубежные сериалы [ 5.58 GB ] Чаки / Chucky / Сезон: 1 / Серии: 1-8 из 8 [2021 WEB-DLRip] DVO [Кубик в кубе] bober100 Скачать
2 | 1
Зарубежные сериалы [ 15.31 GB ] Чаки / Chucky / Сезон: 1 / Серии: 1-8 из 8 [2021 WEB-DL 720p] 2x [MVO] + [DVO] + [Ukr MVO] killermax2013 Скачать
2 | 0
Зарубежные сериалы [ 23.36 GB ] Чаки / Chucky / Сезон: 1 / Серии: 1-8 из 8 [2021 WEB-DL 1080p] MVO [NewStudio] bober100 Скачать
2 | 0


Последний раз редактировалось: Cтрана (2021-12-09 14:12), всего редактировалось 6 раз(а)

28-11-2019 20:33  

Отключить всю рекламу на сайте

09-12-2021 13:45 Чаки Скачать торрент  

Добавлена 8-я серияpiratbit.org



09-12-2021 14:12 Чаки Скачать торрент  

первый публичный фильм ужастик для гомиков piratbit.org



09-12-2021 14:33 Чаки Скачать торрент  

обещают второй сезонpiratbit.org



    Дорогой пользователь! Огромная просьба, поблагодарите релизера, оцените раздачу и оставьте свои комментарий, если Вы скачали Чаки через торрент бесплатно!
    Комментировать посты могут только пользователи прошедшие не сложную регистрацию
    Показать сообщения:    

    Чаки через торрент
    Скачать бесплатно Чаки
    Чаки скачать торрент
    Чаки смотреть онлайн
    Cкачать фильм Чаки бесплатно
    Чаки скачать торрент в хорошем качестве
    Чаки смотреть онлайн бесплатно в хорошем качестве


    Вы не можете начинать темы
    Вы не можете отвечать на сообщения
    Вы не можете редактировать свои сообщения
    Вы не можете удалять свои сообщения
    Вы не можете голосовать в опросах
    Вы не можете прикреплять файлы к сообщениям
    Вы можете скачивать файлы