Присоединяйтесь к нам в Telegram!, здесь всегда актуальный адрес сайта, оперативная поддержка и многое другое!!

>

5.9

iTunes

7.4

iTunes

9.4

1 сезон

1

7.4

2 сезон

7.2

iTunes

7.3

1 сезон

13

6.1

iTunes

8.3

Пиратка

30

ULTIMATE

pack

9.9

Лицензия

ВАЖНО

ИГРА 18+

pack

7.3

RePack

MK11

7.7

RePack

jed

7.8

RePack

fifa19

8.5

RePack

RDR2

RePack

NEED FOR SPEED™ PAYBACK

5 сезон

9 сезон

Бесстыжие 9 сезон

Все сериалы

все сериалы на PB.wtf

RePack

FAR CRY 5

Anonymous, доброй ночи, мы катастрофически не успеваем собрать деньги на оплату серверов, помогите нам пожалуйста 5,10,15р., для нас важна любая помощь . В качестве благодарности мы отключим Вам всю рекламу на сайте (укажите свой ник в строку Ваше имя)!

×
  
Magnet ссылка

Петровы в гриппе (Кирилл Серебренников) [2021, драма, фантастика, WEB-DL 1080p] (ОККО) piratbit.org

Петровы в гриппе через торрент piratbit.org

Раздают: 6 [ 0.5 KB/s ] Качают: 1 [ 0 KB/s ]
Размер: 5.29 GB | Добавлен: 1 мес. 13 д. назад | Торрент скачан:245 раз
Смотреть онлайн Петровы в гриппе | Скачать    Ребята, помогите собрать деньги на оплату серверов!!!

22-10-2021 17:20 Петровы в гриппе Скачать торрент  

Петровы в гриппе
Год выпуска: 2021
Производство: Россия, Фонд «Кинопрайм», Bord Cadre Films, Charades
Жанр: Драма, фантастика
Продолжительность: 02:26:00
Перевод: Не требуется

Субтитры: Отсутствуют
Режиссёр: Кирилл Серебренников

В ролях: Семён Серзин, Чулпан Хаматова, Юлия Пересильд, Юрий Колокольников, Юра Борисов, Иван Дорн, Александр Ильин мл., Сергей Дрейден, Тимофей Трибунцев, Владислав Семилетков
Описание: В сумрачном и холодном Екатеринбурге живет автослесарь Петров (Семен Серзин), его жена Нурлыниса (Чулпан Хаматова) и их маленький сын. Однажды все они заболевают гриппом, и эта обычная для жителей севера напасть преображает их жизнь и раскрывает в ней неведомые доселе нюансы, порой пугающие, а порой и забавные. Еще больше усугубляет временное безумие семьи тот факт, что разыгрывается оно в канун Нового года. Сначала сам Петров, чувствуя, что заболевает, отправляется домой. По дороге, в автобусе, в накатывающем температурном бреду, каждое услышанное слово, каждая случайно брошенная фраза превращается в воспаленном сознании героя в полноценную картину. Дежурное «всех, кто сейчас у власти, к стенке надо ставить» оборачивается галлюцинацией-боевиком с революционным уклоном. Монолог безумного старика — в жестокую социальную драму. Совсем неожиданный поворот дело приобретает, когда внезапно на дороге появляется старый друг Петрова (Юрий Колокольников), жаждущий как следует отпраздновать грядущий праздник... Экранизация бестселлера Андрея Сальникова.

rating

Качество: WEB-DL 1080p
Формат: MKV
Видео кодек: H.264
Аудио кодек: AC3
Видео: MPEG-4 AVC, 1920x768, ~ 5000 Кбит/с, 0.141 bit/pixel, 24 Кадр/с
Аудио: AC3, 48,0 КГц, 2 ch, 192 Кбит/с - ОККО

Общее
Уникальный идентификатор : 251288403829627292924638911692315983275 (0xBD0C62DB771FB088AA689BDE05C67DAB)
Полное имя : D:\Petrovyi.v.grippe.2021.WEB-DL.1080p.ELEKTRI4KA.UNIONGANG.mkv
Формат : Matroska
Версия формата : Version 4
Размер файла : 5,29 Гбайт
Продолжительность : 2 ч. 26 м.
Общий поток : 5 186 Кбит/сек
Название фильма : Petrovyi.v.grippe.2021.WEB-DL.1080p.ELEKTRI4KA.UNIONGANG.
Дата кодирования : UTC 2021-10-22 12:10:25
Программа кодирования : mkvmerge v8.3.0 ('Over the Horizon') 32bit
Библиотека кодирования : libebml v1.3.1 + libmatroska v1.4.2

Видео
Идентификатор : 1
Формат : AVC
Формат/Информация : Advanced Video Codec
Профиль формата : High@L4
Настройки формата : CABAC / 3 Ref Frames
Параметр CABAC формата : Да
Параметр RefFrames формата : 3 кадра
Идентификатор кодека : V_MPEG4/ISO/AVC
Продолжительность : 2 ч. 26 м.
Битрейт : 5 000 Кбит/сек
Ширина : 1 920 пикселей
Высота : 768 пикселей
Соотношение сторон : 2,500
Режим частоты кадров : Постоянный
Частота кадров : 24,000 кадра/сек
Цветовое пространство : YUV
Субдискретизация насыщенности : 4:2:0
Битовая глубина : 8 бит
Тип развёртки : Прогрессивная
Бит/(Пиксели*Кадры) : 0.141
Размер потока : 5,09 Гбайт (96%)
Библиотека кодирования : x264 core 161 r3048 b86ae3c
Настройки программы : cabac=1 / ref=4 / deblock=1:1:1 / analyse=0x3:0x133 / me=umh / subme=9 / psy=1 / psy_rd=0.40:1.00 / mixed_ref=1 / me_range=24 / chroma_me=1 / trellis=0 / 8x8dct=1 / cqm=0 / deadzone=21,11 / fast_pskip=1 / chroma_qp_offset=-2 / threads=24 / lookahead_threads=2 / sliced_threads=0 / nr=0 / decimate=1 / interlaced=0 / bluray_compat=0 / constrained_intra=0 / bframes=8 / b_pyramid=1 / b_adapt=1 / b_bias=0 / direct=3 / weightb=1 / open_gop=0 / weightp=2 / keyint=72 / keyint_min=37 / scenecut=0 / intra_refresh=0 / rc_lookahead=30 / rc=2pass / mbtree=1 / bitrate=5000 / ratetol=1.0 / qcomp=0.80 / qpmin=1 / qpmax=69 / qpstep=4 / cplxblur=20.0 / qblur=0.5 / vbv_maxrate=7500 / vbv_bufsize=10000 / nal_hrd=none / filler=0 / ip_ratio=1.40 / aq=1:1.00
Default : Да
Forced : Нет
Цветовой диапазон : Limited
Основные цвета : BT.709
Характеристики трансфера : BT.709
Коэффициенты матрицы : BT.709

Аудио
Идентификатор : 2
Формат : AC-3
Формат/Информация : Audio Coding 3
Коммерческое название : Dolby Digital
Идентификатор кодека : A_AC3
Продолжительность : 2 ч. 26 м.
Вид битрейта : Постоянный
Битрейт : 192 Кбит/сек
Каналы : 2 канала
Channel layout : L R
Частота : 48,0 КГц
Частота кадров : 31,250 кадров/сек (1536 SPF)
Метод сжатия : С потерями
Размер потока : 201 Мбайт (4%)
Заголовок : Original (OKKO)
Язык : Russian
Service kind : Complete Main
Default : Да
Forced : Нет
piratbit.org



Скачать Петровы в гриппе через торрент https://i6.imageban.ru/out/2021/10/22/65a88668f1dbd3c2a25a330c43991634.jpg Скачать, смотреть онлайн Петровы в гриппе бесплантно в хорошем качестве Описание: В сумрачном и холодном Екатеринбурге живет автослесарь Петров (Семен Серзин), его жена Нурлыниса (Чулпан Хаматова) и их маленький ... 9 10 9
Info! Золотая раздача, скачанное не засчитывается.
Торрент: Зарегистрирован [2021-10-22 17:20] · скачан: 245 раз
Статус: √ проверено
Размер: 5.29 GB
Как cкачать? Как скачать Петровы в гриппе через торрент | UTorrent

% Раздел Тема Автор DL S | L
Наши новые фильмы 2020 - 2021 [ 2.33 GB ] Петровы в гриппе [2021 WEB-DLRip-AVC] RUS [ОККО] от ExKinoRay Lithuania Скачать
13 | 0

28-11-2019 20:33  

Отключить всю рекламу на сайте

25-11-2021 11:52 Петровы в гриппе Скачать торрент  

фильм бомба, конечно с начала всё сумбурно, но под конец как сложится всё и придётся смотреть второй раз и открывать загадки которые просмотрел ! аналогу такому фильма нет вообще !piratbit.org



01-12-2021 17:15 Петровы в гриппе Скачать торрент  

Есть такое выражение: не ищите чёрную кошку в тёмной комнате, потому что её там нет. Так и в этом бредовом фильме нет ничего, что могло бы заинтересовать зрителя.
Ну если только Вас интересует это: грязь, холод, мрак, коррупция, все больные, как физически - грипп, так и на голову - маньяки, психи, обязательно бухло и табак, просроченные лекарства, пьяные разборки, голые мужики и бабы, члены, педики, самоубийство, тема аборта, рыгаловка, ну и так далее, далее, далее... всякой другой мерзости и пакости.
Вот так видит Россию и русский народ Кирилл Серебренников, и хочет поделиться своим видением с иностранцами, в Каннах. Наверно, они оценят его самоотверженный труд!piratbit.org



    Дорогой пользователь! Огромная просьба, поблагодарите релизера, оцените раздачу и оставьте свои комментарий, если Вы скачали Петровы в гриппе через торрент бесплатно!
    Комментировать посты могут только пользователи прошедшие не сложную регистрацию
    Показать сообщения:    

    Петровы в гриппе через торрент
    Скачать бесплатно Петровы в гриппе
    Петровы в гриппе скачать торрент
    Петровы в гриппе смотреть онлайн
    Cкачать фильм Петровы в гриппе бесплатно
    Петровы в гриппе скачать торрент в хорошем качестве
    Петровы в гриппе смотреть онлайн бесплатно в хорошем качестве


    Вы не можете начинать темы
    Вы не можете отвечать на сообщения
    Вы не можете редактировать свои сообщения
    Вы не можете удалять свои сообщения
    Вы не можете голосовать в опросах
    Вы не можете прикреплять файлы к сообщениям
    Вы можете скачивать файлы