Присоединяйтесь к нам в Telegram!, здесь всегда актуальный адрес сайта, оперативная поддержка и многое другое!!

>

5.9

iTunes

7.4

iTunes

9.4

1 сезон

1

7.4

2 сезон

7.2

iTunes

7.3

1 сезон

13

6.1

iTunes

8.3

Пиратка

30

ULTIMATE

pack

9.9

Лицензия

ВАЖНО

ИГРА 18+

pack

7.3

RePack

MK11

7.7

RePack

jed

7.8

RePack

fifa19

8.5

RePack

RDR2

RePack

NEED FOR SPEED™ PAYBACK

5 сезон

9 сезон

Бесстыжие 9 сезон

Все сериалы

все сериалы на PB.wtf

RePack

FAR CRY 5

Anonymous, доброй ночи, мы катастрофически не успеваем собрать деньги на оплату серверов, помогите нам пожалуйста 5,10,15р., для нас важна любая помощь . В качестве благодарности мы отключим Вам всю рекламу на сайте (укажите свой ник в строку Ваше имя)!

×
  
Magnet ссылка

Петровы в гриппе (Кирилл Серебренников) [2021, Комедия, криминал, WEB-DLRip-AVC] RUS [ОККО] от ExKinoRay piratbit.org

Петровы в гриппе через торрент piratbit.org

Раздают: 12 [ 0 KB/s ]
Размер: 2.33 GB | Добавлен: 1 мес. 13 д. назад | Торрент скачан:288 раз
Смотреть онлайн Петровы в гриппе | Скачать    Ребята, помогите собрать деньги на оплату серверов!!!

22-10-2021 20:18 Петровы в гриппе Скачать торрент  


Петровы в гриппе
Информация о фильме:
Название: Петровы в гриппе
Год выхода: 2021
Жанр: Драма, фантастика
Режиссер: Кирилл Серебренников

В ролях: Семён Серзин, Чулпан Хаматова, Юлия Пересильд, Юрий Колокольников, Юра Борисов, Иван Дорн, Александр Ильин мл., Сергей Дрейден, Тимофей Трибунцев, Владислав Семилетков

Описание: Петровы — самая обычная семья. Он — автослесарь, она — библиотекарь, у них есть сын, но вместе они не живут. Казалось бы, ничего особенного. Но повседневная реальность взрывается в тот момент, когда семья заболевает гриппом, и жизнь наполняется безумием, фантастикой и сюрреализмом.



Страна: Россия
Студия: Фонд «Кинопрайм», Bord Cadre Films, Charades
Продолжительность: 02:26:00
Перевод: Русский - ОККО



Информация о файле:
Кодек: AVC
Формат: MKV
Качество: WEB-DLRip-AVC
Видео: MPEG-4 AVC, 1024x410, 24.000 fps, 2100 kbps
Аудио RU: AC3, 2 ch, 48 kHz, 192 kbps

x264 info: frame I:1010 Avg QP:10.99 size: 55750
x264 info: frame P:47973 Avg QP:14.33 size: 22382
x264 info: frame B:161257 Avg QP:16.68 size: 7178
x264 info: consecutive B-frames: 2.2% 3.7% 10.8% 23.4% 22.8% 17.2% 4.2% 2.4% 12.1% 0.6% 0.4%
General
Unique ID : 57389670837588451166488278167728973606 (0x2B2CD93AFF150B3ABC28B743A5C86726)
Complete name : D:uTorrentРипы wolf1245Petrovi v grippe.2021.RUS.OKKO.WEB-DLRip-AVC.[wolf1245.ExKinoRay].mkv
Format : Matroska
Format version : Version 4
File size : 2.33 GiB
Duration : 2 h 26 min
Overall bit rate : 2 283 kb/s
Movie name : Petrovi v grippe.2021.RUS.OKKO.WEB-DLRip-AVC.[wolf1245.ExKinoRay]
Encoded date : UTC 2021-10-22 20:03:05
Writing application : mkvmerge v62.0.0 ('Apollo') 64-bit
Writing library : libebml v1.4.2 + libmatroska v1.6.4
Video
ID : 1
Format : AVC
Format/Info : Advanced Video Codec
Format profile : High@L4.1
Format settings : CABAC / 12 Ref Frames
Format settings, CABAC : Yes
Format settings, Reference frames : 12 frames
Codec ID : V_MPEG4/ISO/AVC
Duration : 2 h 26 min
Bit rate : 2 100 kb/s
Width : 1 024 pixels
Height : 410 pixels
Display aspect ratio : 2.498
Frame rate mode : Constant
Frame rate : 24.000 FPS
Color space : YUV
Chroma subsampling : 4:2:0
Bit depth : 8 bits
Scan type : Progressive
Bits/(Pixel*Frame) : 0.208
Stream size : 2.13 GiB (92%)
Title : -=[wolf1245.ExKinoRay]=-
Writing library : x264 core 161 r3020 d198931
Encoding settings : cabac=1 / ref=12 / deblock=1:-3:-2 / analyse=0x3:0x133 / me=umh / subme=10 / psy=1 / psy_rd=1.02:0.07 / mixed_ref=1 / me_range=32 / chroma_me=1 / trellis=2 / 8x8dct=1 / cqm=0 / deadzone=21,11 / fast_pskip=1 / chroma_qp_offset=-3 / threads=10 / lookahead_threads=2 / sliced_threads=0 / nr=0 / decimate=0 / interlaced=0 / bluray_compat=0 / constrained_intra=0 / bframes=10 / b_pyramid=2 / b_adapt=2 / b_bias=0 / direct=3 / weightb=1 / open_gop=0 / weightp=2 / keyint=240 / keyint_min=24 / scenecut=40 / intra_refresh=0 / rc_lookahead=60 / rc=2pass / mbtree=0 / bitrate=2100 / ratetol=1.0 / qcomp=0.60 / qpmin=0 / qpmax=69 / qpstep=4 / cplxblur=20.0 / qblur=0.5 / vbv_maxrate=50000 / vbv_bufsize=62500 / nal_hrd=none / filler=0 / ip_ratio=1.40 / pb_ratio=1.30 / aq=3:0.80
Language : Russian
Default : Yes
Forced : No
Color range : Limited
Color primaries : BT.709
Transfer characteristics : BT.709
Matrix coefficients : BT.709
Audio
ID : 2
Format : AC-3
Format/Info : Audio Coding 3
Commercial name : Dolby Digital
Codec ID : A_AC3
Duration : 2 h 26 min
Bit rate mode : Constant
Bit rate : 192 kb/s
Channel(s) : 2 channels
Channel layout : L R
Sampling rate : 48.0 kHz
Frame rate : 31.250 FPS (1536 SPF)
Compression mode : Lossy
Stream size : 201 MiB (8%)
Title : Original (OKKO)
Language : Russian
Service kind : Complete Main
Default : Yes
Forced : No
Релиз от:
Автор релиза:
piratbit.org



Скачать Петровы в гриппе через торрент https://i116.fastpic.org/big/2021/1022/81/aa0680d002c17123a9d3b1e85b06b981.jpg Скачать, смотреть онлайн Петровы в гриппе бесплантно в хорошем качестве Описание: Петровы — самая обычная семья. Он — автослесарь, она — библиотекарь, у них есть сын, но вместе они не живут. Казалось бы, ... 8.3 10 12
Info! Золотая раздача, скачанное не засчитывается.
Торрент: Зарегистрирован [2021-10-22 20:18] · скачан: 288 раз
Статус: √ проверено
Размер: 2.33 GB
Как cкачать? Как скачать Петровы в гриппе через торрент | UTorrent

28-11-2019 20:33  

Отключить всю рекламу на сайте

26-10-2021 08:43 Петровы в гриппе Скачать торрент  

Ну как? кто нить отзовитесь)))piratbit.org



07-11-2021 19:24 Петровы в гриппе Скачать торрент  

что я посмотрел? запиканный мат, куча членов, хрен пойми вообще о чем фильм, сюжета 0.0.piratbit.org



25-11-2021 11:56 Петровы в гриппе Скачать торрент  

фильм бомба ! отличный и не обычный сюжет, много ностальгии. запутанный и распутанный сюжет - второй просмотр обязателен !piratbit.org



    Дорогой пользователь! Огромная просьба, поблагодарите релизера, оцените раздачу и оставьте свои комментарий, если Вы скачали Петровы в гриппе через торрент бесплатно!
    Комментировать посты могут только пользователи прошедшие не сложную регистрацию
    Показать сообщения:    

    Петровы в гриппе через торрент
    Скачать бесплатно Петровы в гриппе
    Петровы в гриппе скачать торрент
    Петровы в гриппе смотреть онлайн
    Cкачать фильм Петровы в гриппе бесплатно
    Петровы в гриппе скачать торрент в хорошем качестве
    Петровы в гриппе смотреть онлайн бесплатно в хорошем качестве


    Вы не можете начинать темы
    Вы не можете отвечать на сообщения
    Вы не можете редактировать свои сообщения
    Вы не можете удалять свои сообщения
    Вы не можете голосовать в опросах
    Вы не можете прикреплять файлы к сообщениям
    Вы можете скачивать файлы