Присоединяйтесь к нам в Telegram!, здесь всегда актуальный адрес сайта, оперативная поддержка и многое другое!!

>

5.9

iTunes

7.4

iTunes

9.4

1 сезон

1

7.4

2 сезон

7.2

iTunes

7.3

1 сезон

13

6.1

iTunes

8.3

Пиратка

30

ULTIMATE

pack

9.9

Лицензия

ВАЖНО

ИГРА 18+

pack

7.3

RePack

MK11

7.7

RePack

jed

7.8

RePack

fifa19

8.5

RePack

RDR2

RePack

NEED FOR SPEED™ PAYBACK

5 сезон

9 сезон

Бесстыжие 9 сезон

Все сериалы

все сериалы на PB.wtf

RePack

FAR CRY 5

Anonymous, доброй ночи, мы катастрофически не успеваем собрать деньги на оплату серверов, помогите нам пожалуйста 5,10,15р., для нас важна любая помощь . В качестве благодарности мы отключим Вам всю рекламу на сайте (укажите свой ник в строку Ваше имя)!

×
  
Magnet ссылка

Легенда о Зелёном Рыцаре / The Green Knight (Дэвид Лоури) [2021, Фэнтези, приключения, BDRip 1080p] DVO [Кубик в кубе] piratbit.org

Легенда о Зелёном Рыцаре через торрент piratbit.org

Раздают: 3 [ 1 MB/s ]
Размер: 11.52 GB | Добавлен: 1 мес. 4 д. назад | Торрент скачан:72 раза
Смотреть онлайн Легенда о Зелёном Рыцаре | Скачать    Ребята, помогите собрать деньги на оплату серверов!!!

31-10-2021 06:11 Легенда о Зелёном Рыцаре Скачать торрент  

Легенда о Зелёном Рыцаре | The Green Knight
Год выпуска: 2021
Страна: Ирландия, Канада, США, Великобритания
Выпущено: A24, Bron Studios, Creative Wealth Media Finance, Ley Line Entertainment, Sailor Bear, Wild Atlantic Pictures
Жанр: Фэнтези, приключения
Продолжительность: 02:09:46
Перевод:Профессиональный (двухголосый, закадровый) | Кубик в кубе
Субтитры: Русские (Forced, full), английские (SDH)

Режиссер: Дэвид Лоури

rating

В ролях: Дев Патель, Алисия Викандер, Джоэл Эдгертон, Шон Харрис, Сарита Чоудри, Барри Кеоган, Ралф Айнесон, Кейт Дики, Эрин Келлиман, Аарон Эдо, Юссеф Куинн

Описание: Король празднует Рождество в замке в окружении двора и верных рыцарей, куда вдруг заявляется загадочный Зелёный Рыцарь и предлагает принять его вызов. Любой из присутствующих может нанести ему удар, но через год и один день он должен будет встретится с Зелёным Рыцарем в зелёной часовне в девяти днях пути на север и принять удар в ответ. Молодой сэр Гавейн, племянник и единственный наследник короля, вызывается на поединок и отрубает странному гостю голову. Но тот, приставив голову на место, напоминает об уговоре и удаляется. Год спустя верный данному слову сэр Гавейн отправляется навстречу судьбе в полное опасностей путешествие.

Качество: BDRip 1080p
Формат: MKV

Видео: 1920x1038 at 23.976 fps, MPEG-4 AVC, ~11700 kbps avg
Аудио #01: 48 kHz, AC3, 5.1, 384 Kbps | Кубик в кубе | RUS |
Аудио #02: 48 kHz, AC3, 5.1, 640 Kbps | Оригинал | ENG |
скриншот  скриншот  скриншот  скриншот  

General
Unique ID : 325244421289208187293127188889496744459 (0xF4AFCC098A663932C64525AF2E28720B)
Complete name : The.Green.Knight.2021.BDRip.1080p.mkv
Format : Matroska
Format version : Version 4
File size : 11.5 GiB
Duration : 2 h 9 min
Overall bit rate : 12.7 Mb/s
Movie name : Легенда о Зелёном Рыцаре / The Green Knight (2021)
Encoded date : UTC 2021-10-30 09:52:04
Writing application : mkvmerge v61.0.0 ('So') 64-bit
Writing library : libebml v1.4.2 + libmatroska v1.6.4

Video
ID : 1
Format : AVC
Format/Info : Advanced Video Codec
Format profile : High@L4.1
Format settings : CABAC / 4 Ref Frames
Format settings, CABAC : Yes
Format settings, Reference fra : 4 frames
Codec ID : V_MPEG4/ISO/AVC
Duration : 2 h 9 min
Bit rate : 11.7 Mb/s
Width : 1 920 pixels
Height : 1 038 pixels
Display aspect ratio : 1.85:1
Frame rate mode : Constant
Frame rate : 23.976 (24000/1001) FPS
Color space : YUV
Chroma subsampling : 4:2:0
Bit depth : 8 bits
Scan type : Progressive
Bits/(Pixel*Frame) : 0.244
Stream size : 10.6 GiB (92%)
Writing library : x264 core 157 r2938 2b00a84 TnP@MTeam Mod
Encoding settings : cabac=1 / ref=4 / deblock=1:-3:-3 / analyse=0x3:0x133 / me=umh / subme=10 / psy=1 / psy_rd=1.05:0.00 / mixed_ref=1 / me_range=32 / chroma_me=1 / trellis=2 / 8x8dct=1 / cqm=0 / deadzone=21,11 / fast_pskip=0 / chroma_qp_offset=-2 / threads=12 / lookahead_threads=2 / sliced_threads=0 / nr=0 / decimate=0 / interlaced=0 / bluray_compat=0 / constrained_intra=0 / bframes=8 / b_pyramid=2 / b_adapt=2 / b_bias=0 / direct=3 / weightb=1 / open_gop=0 / weightp=2 / keyint=250 / keyint_min=24 / scenecut=40 / intra_refresh=0 / rc_lookahead=250 / rc=crf / mbtree=0 / crf=16.8 / qcomp=0.60 / qpmin=0 / qpmax=69 / qpstep=4 / vbv_maxrate=62500 / vbv_bufsize=78125 / crf_max=0.0 / nal_hrd=none / filler=0 / ip_ratio=1.30 / pb_ratio=1.20 / aq=3:0.80
Default : Yes
Forced : No
Color range : Limited
Color primaries : BT.709
Matrix coefficients : BT.709

Audio #1
ID : 2
Format : AC-3
Format/Info : Audio Coding 3
Commercial name : Dolby Digital
Codec ID : A_AC3
Duration : 2 h 9 min
Bit rate mode : Constant
Bit rate : 384 kb/s
Channel(s) : 6 channels
Channel layout : L R C LFE Ls Rs
Sampling rate : 48.0 kHz
Frame rate : 31.250 FPS (1536 SPF)
Compression mode : Lossy
Stream size : 356 MiB (3%)
Language : Russian
Service kind : Complete Main
Default : Yes
Forced : No

Audio #2
ID : 3
Format : AC-3
Format/Info : Audio Coding 3
Commercial name : Dolby Digital
Format settings : Dolby Surround EX
Codec ID : A_AC3
Duration : 2 h 9 min
Bit rate mode : Constant
Bit rate : 640 kb/s
Channel(s) : 6 channels
Channel layout : L R C LFE Ls Rs
Sampling rate : 48.0 kHz
Frame rate : 31.250 FPS (1536 SPF)
Compression mode : Lossy
Stream size : 594 MiB (5%)
Language : English
Service kind : Complete Main
Default : No
Forced : No

Text #1
ID : 4
Format : UTF-8
Codec ID : S_TEXT/UTF8
Codec ID/Info : UTF-8 Plain Text
Duration : 1 h 44 min
Bit rate : 0 b/s
Count of elements : 12
Stream size : 385 Bytes (0%)
Title : Forced
Language : Russian
Default : Yes
Forced : No

Text #2
ID : 5
Format : UTF-8
Codec ID : S_TEXT/UTF8
Codec ID/Info : UTF-8 Plain Text
Duration : 2 h 4 min
Bit rate : 32 b/s
Count of elements : 718
Stream size : 29.6 KiB (0%)
Title : Full
Language : Russian
Default : No
Forced : No

Text #3
ID : 6
Format : UTF-8
Codec ID : S_TEXT/UTF8
Codec ID/Info : UTF-8 Plain Text
Duration : 2 h 4 min
Bit rate : 35 b/s
Count of elements : 788
Stream size : 32.5 KiB (0%)
Title : Full | FOCS
Language : Russian
Default : No
Forced : No

Text #4
ID : 7
Format : UTF-8
Codec ID : S_TEXT/UTF8
Codec ID/Info : UTF-8 Plain Text
Duration : 2 h 8 min
Bit rate : 31 b/s
Count of elements : 1238
Stream size : 29.6 KiB (0%)
Title : SDH
Language : English
Default : No
Forced : No

Menu
00:00:00.000 : Chapter 01
00:06:54.956 : Chapter 02
00:15:04.445 : Chapter 03
00:25:13.220 : Chapter 04
00:32:26.695 : Chapter 05
00:41:46.504 : Chapter 06
00:48:36.539 : Chapter 07
00:54:26.096 : Chapter 08
01:02:32.290 : Chapter 09
01:09:30.917 : Chapter 10
01:14:42.978 : Chapter 11
01:22:58.974 : Chapter 12
01:30:42.145 : Chapter 13
01:37:10.533 : Chapter 14
01:48:51.692 : Chapter 15
02:00:00.485 : Chapter 16

piratbit.org



Скачать Легенда о Зелёном Рыцаре через торрент https://i3.imageban.ru/out/2021/10/30/ba4731811c11226732e311a994f02cdc.jpg Скачать, смотреть онлайн Легенда о Зелёном Рыцаре бесплантно в хорошем качестве Описание: Король празднует Рождество в замке в окружении двора и верных рыцарей, куда вдруг заявляется загадочный Зелёный Рыцарь и ... 10 10 5
Info! Золотая раздача, скачанное не засчитывается.
Торрент: Зарегистрирован [2021-10-31 06:11] · скачан: 72 раз
Статус: √ проверено
Размер: 11.52 GB
Как cкачать? Как скачать Легенда о Зелёном Рыцаре через торрент | UTorrent

% Раздел Тема Автор DL S | L
Фильмы 2021 [DVDrip, WEB-DLRip, HDrip] (DUB, MVO) [ 2.18 GB ] Легенда о Зелёном Рыцаре / The Green Knight [2021 BDRip] - [СинеЛаб СаундМикс] Twi7ter Скачать
21 | 0
Фильмы 2021 [DVDrip, WEB-DLRip, HDrip] (DUB, MVO) [ 1.46 GB ] Легенда о Зелёном Рыцаре / The Green Knight [2021 BDRip] - [СинеЛаб СаундМикс] Twi7ter Скачать
26 | 1
Фильмы 2021 [DVDrip, WEB-DLRip, HDrip] (DUB, MVO) [ 2.49 GB ] Легенда о Зелёном Рыцаре / The Green Knight [2021 HDLRip-AVC] DUB [ СинеЛаб СаундМикс] от ExKinoRay Lithuania Скачать
2 | 0
Ultra HD (UHD: 2K, 4K, 8K) — видео сверхвысокой чёткости [ 70.9 GB ] Легенда о Зелёном Рыцаре / The Green Knight [2021 UHD BDRemux 2160p ] DUB [СинеЛаб СаундМикс] bober100 Скачать
2 | 0
Ultra HD (UHD: 2K, 4K, 8K) — видео сверхвысокой чёткости [ 59.67 GB ] Легенда о Зелёном Рыцаре / The Green Knight [2021 UHD BDRemux 2160p ] DUB [СинеЛаб СаундМикс] bober100 Скачать
1 | 0
Фильмы [HD 720p, 1080p] (Хороший звук DUB, MVO) [ 11.57 GB ] Легенда о Зелёном Рыцаре / The Green Knight [2021 BDRip 1080p] DUB [СинеЛаб СаундМикс] bober100 Скачать
8 | 0
Фильмы (HD 720p, 1080p) (48-60 fps) [ 4.88 GB ] Легенда о Зелёном Рыцаре / The Green Knight [2021 WEB-DLRip - HEVC 1080p 10 bit 60 FPS DUB] dd2d3 Скачать
5 | 0

28-11-2019 20:33  

Отключить всю рекламу на сайте

    Дорогой пользователь! Огромная просьба, поблагодарите релизера, оцените раздачу и оставьте свои комментарий, если Вы скачали Легенда о Зелёном Рыцаре через торрент бесплатно!
    Комментировать посты могут только пользователи прошедшие не сложную регистрацию
    Показать сообщения:    

    Легенда о Зелёном Рыцаре через торрент
    Скачать бесплатно Легенда о Зелёном Рыцаре
    Легенда о Зелёном Рыцаре скачать торрент
    Легенда о Зелёном Рыцаре смотреть онлайн
    Cкачать фильм Легенда о Зелёном Рыцаре бесплатно
    Легенда о Зелёном Рыцаре скачать торрент в хорошем качестве
    Легенда о Зелёном Рыцаре смотреть онлайн бесплатно в хорошем качестве


    Вы не можете начинать темы
    Вы не можете отвечать на сообщения
    Вы не можете редактировать свои сообщения
    Вы не можете удалять свои сообщения
    Вы не можете голосовать в опросах
    Вы не можете прикреплять файлы к сообщениям
    Вы можете скачивать файлы