Достать ножи: Стеклянная луковица

MVO

Добыча

Дубляж

Уэнсдэй

1 сезон

Тор

Дубляж

13 клиническая

1 сезон

Жестокая ночь

MVO

Одни из нас

1 сезон

Deluxe

pack

Рекомендуем

30

Пиратка

ВАЖНО

ВАЖНО

Ghostwire

Пиратка

jed

RePack

nioh2

RePack

RDR2

RePack

NEED FOR SPEED™ PAYBACK

RePack

скачать торрент

Кинопоиск HD

Острые козырьки 6 сезон

6 сезон

FAR CRY 6

RePack

скачать торрент

Лицензия

скачать торрент

MVO

1

1 сезон

скачать торрент

1 сезон

скачать торрент

Лицензия

  

Армия воров / Army of Thieves (Маттиас Швайгхефер) [2021, Боевик, триллер, криминал, UHD WEB-DL-HEVC 2160p] Дубляж (rus, ukr) [Пифагор / Netflix]

Армия воров через торрент piratbit.org

Размер: 16.04 GB | Добавлен: 1 год 3 мес. назад | Торрент скачан:483 раза
Смотреть онлайн | Скачать | Поддержите нас   

31-10-2021 07:24 Армия воров Скачать торрент  

Армия воров | Army of Thieves
Год выпуска: 2021
Страна: Германия, США
Выпущено: Film United, Pantaleon Films, The Stone Quarry
Жанр: Боевик, триллер, криминал
Продолжительность: 02:09:34
Перевод: Дублированный | Пифагор по заказу Netflix
Субтитры: Русские (Forced, full), украинские (Forced, Full), английские (Forced, SDH), немецкие, французкие, иврит, румынские

Режиссер: Маттиас Швайгхефер

rating

В ролях: Маттиас Швайгхёфер, Натали Эммануэль, Руби О. Фи, Стюарт Мартин, Гуз Кхан, Джонатан Коэн, Ноэмиэ Накаи, Трент Гарретт, Джон Бубняк, Джим Хай

Описание: Жизнь скромного банковского служащего Дитера круто меняется, когда таинственная незнакомка приглашает его в команду самых разыскиваемых Интерполом преступников, решивших взломать неприступные сейфы по всей Европе.

Качество: UHD WEB-DL-HEVC 2160p
Формат: MKV

Видео: MPEG-H HEVC HDR Video, 3840x2160 (16:9), 24 fps, ~15900 kbps
Аудио #01: 48 kHz, E-AC3, 5.1, 640 Kbps | Дублированный | Netflix | RUS |
Аудио #02: 48 kHz, E-AC3, 5.1, 640 Kbps | Дублированный | Netflix | UKR |
Аудио #03: 48 kHz, E-AC3+Atmos, 5.1, 768 Kbps | Оригинал | ENG |
скриншот  скриншот  скриншот  скриншот  

General
Unique ID : 34731814117370532997087935930495171996 (0x1A211AA5318C73A3F7A271EF131C7D9C)
Complete name : Army.of.Thieves.2021.HDR.2160p.NF.WEB-DL.DDP5.1.x265-EniaHD.mkv
Format : Matroska
Format version : Version 4
File size : 16.0 GiB
Duration : 2 h 9 min
Overall bit rate : 17.7 Mb/s
Movie name : Army of Thieves (2021) - EniaHD
Writing application : mkvmerge v62.0.0 ('Apollo') 64-bit
Writing library : libebml v1.4.2 + libmatroska v1.6.4

Video
ID : 1
Format : HEVC
Format/Info : High Efficiency Video Coding
Format profile : Main 10@L5@Main
HDR format : SMPTE ST 2086, HDR10 compatible
Codec ID : V_MPEGH/ISO/HEVC
Duration : 2 h 7 min
Bit rate : 15.9 Mb/s
Width : 3 840 pixels
Height : 2 160 pixels
Display aspect ratio : 16:9
Frame rate mode : Constant
Frame rate : 24.000 FPS
Color space : YUV
Chroma subsampling : 4:2:0 (Type 2)
Bit depth : 10 bits
Bits/(Pixel*Frame) : 0.080
Stream size : 14.2 GiB (88%)
Default : Yes
Forced : No
Color range : Limited
Color primaries : BT.2020
Transfer characteristics : PQ
Matrix coefficients : BT.2020 non-constant
Mastering display color primar : Display P3
Mastering display luminance : min: 0.0001 cd/m2, max: 1000 cd/m2
Maximum Content Light Level : 1328 cd/m2
Maximum Frame-Average Light Le : 349 cd/m2

Audio #1
ID : 2
Format : E-AC-3
Format/Info : Enhanced AC-3
Commercial name : Dolby Digital Plus
Codec ID : A_EAC3
Duration : 2 h 9 min
Bit rate mode : Constant
Bit rate : 640 kb/s
Channel(s) : 6 channels
Channel layout : L R C LFE Ls Rs
Sampling rate : 48.0 kHz
Frame rate : 31.250 FPS (1536 SPF)
Compression mode : Lossy
Stream size : 593 MiB (4%)
Language : Russian
Service kind : Complete Main
Default : Yes
Forced : No

Audio #2
ID : 3
Format : E-AC-3
Format/Info : Enhanced AC-3
Commercial name : Dolby Digital Plus
Codec ID : A_EAC3
Duration : 2 h 9 min
Bit rate mode : Constant
Bit rate : 640 kb/s
Channel(s) : 6 channels
Channel layout : L R C LFE Ls Rs
Sampling rate : 48.0 kHz
Frame rate : 31.250 FPS (1536 SPF)
Compression mode : Lossy
Stream size : 593 MiB (4%)
Language : Ukrainian
Service kind : Complete Main
Default : No
Forced : No

Audio #3
ID : 4
Format : E-AC-3 JOC
Format/Info : Enhanced AC-3 with Joint Object Coding
Commercial name : Dolby Digital Plus with Dolby Atmos
Codec ID : A_EAC3
Duration : 2 h 9 min
Bit rate mode : Constant
Bit rate : 768 kb/s
Channel(s) : 6 channels
Channel layout : L R C LFE Ls Rs
Sampling rate : 48.0 kHz
Frame rate : 31.250 FPS (1536 SPF)
Compression mode : Lossy
Stream size : 712 MiB (4%)
Language : English
Service kind : Complete Main
Default : No
Forced : No
Complexity index : 16
Number of dynamic objects : 15
Bed channel count : 1 channel
Bed channel configuration : LFE

Text #1
ID : 5
Format : UTF-8
Codec ID : S_TEXT/UTF8
Codec ID/Info : UTF-8 Plain Text
Duration : 2 h 7 min
Bit rate : 5 b/s
Count of elements : 132
Stream size : 4.84 KiB (0%)
Title : Forced
Language : Russian
Default : Yes
Forced : No

Text #2
ID : 6
Format : UTF-8
Codec ID : S_TEXT/UTF8
Codec ID/Info : UTF-8 Plain Text
Duration : 2 h 7 min
Bit rate : 77 b/s
Count of elements : 1518
Stream size : 72.5 KiB (0%)
Language : Russian
Default : No
Forced : No

Text #3
ID : 7
Format : UTF-8
Codec ID : S_TEXT/UTF8
Codec ID/Info : UTF-8 Plain Text
Duration : 2 h 0 min
Bit rate : 4 b/s
Count of elements : 117
Stream size : 4.40 KiB (0%)
Title : Forced
Language : Ukrainian
Default : No
Forced : No

Text #4
ID : 8
Format : UTF-8
Codec ID : S_TEXT/UTF8
Codec ID/Info : UTF-8 Plain Text
Duration : 2 h 2 min
Bit rate : 81 b/s
Count of elements : 1520
Stream size : 72.8 KiB (0%)
Language : Ukrainian
Default : No
Forced : No

Text #5
ID : 9
Format : UTF-8
Codec ID : S_TEXT/UTF8
Codec ID/Info : UTF-8 Plain Text
Duration : 1 h 49 min
Bit rate : 4 b/s
Count of elements : 150
Stream size : 4.01 KiB (0%)
Title : Forced
Language : English
Default : No
Forced : No

Text #6
ID : 10
Format : UTF-8
Codec ID : S_TEXT/UTF8
Codec ID/Info : UTF-8 Plain Text
Duration : 2 h 2 min
Bit rate : 63 b/s
Count of elements : 1761
Stream size : 57.4 KiB (0%)
Title : SDH
Language : English
Default : No
Forced : No

Text #7
ID : 11
Format : UTF-8
Codec ID : S_TEXT/UTF8
Codec ID/Info : UTF-8 Plain Text
Duration : 2 h 7 min
Bit rate : 46 b/s
Count of elements : 1437
Stream size : 43.5 KiB (0%)
Language : German
Default : No
Forced : No

Text #8
ID : 12
Format : UTF-8
Codec ID : S_TEXT/UTF8
Codec ID/Info : UTF-8 Plain Text
Duration : 2 h 7 min
Bit rate : 44 b/s
Count of elements : 1422
Stream size : 41.8 KiB (0%)
Language : French
Default : No
Forced : No

Text #9
ID : 13
Format : UTF-8
Codec ID : S_TEXT/UTF8
Codec ID/Info : UTF-8 Plain Text
Duration : 2 h 7 min
Bit rate : 66 b/s
Count of elements : 1526
Stream size : 62.1 KiB (0%)
Language : Hebrew
Default : No
Forced : No

Text #10
ID : 14
Format : UTF-8
Codec ID : S_TEXT/UTF8
Codec ID/Info : UTF-8 Plain Text
Duration : 2 h 7 min
Bit rate : 49 b/s
Count of elements : 1509
Stream size : 46.3 KiB (0%)
Language : Romanian
Default : No
Forced : No




Скачать Армия воров через торрент https://st-kp-yandex-net.translate.goog/images/film_iphone/iphone360_1403664.jpg Скачать, смотреть онлайн Армия воров бесплантно в хорошем качестве Описание: Жизнь скромного банковского служащего Дитера круто меняется, когда таинственная незнакомка приглашает его в команду самых ... 10 10 10
Info! Золотая раздача, скачанное не засчитывается.
Торрент: Зарегистрирован [2021-10-31 07:24] · скачан: 483 раз
Статус: √ проверено
Размер: 16.04 GB
Как cкачать? Как скачать Армия воров через торрент | UTorrent

% Раздел Тема Автор DL S | L
Фильмы (HD 720p, 1080p) (48-60 fps) [ 3.64 GB ] Армия воров / Army of Thieves | DUB | 1080p 10 bit 60 FPS, DUB dd2d3 Скачать
2 | 0
Фильмы (WEB-DL 720p, 1080p) [ 5.14 GB ] Армия воров / Army of Thieves | Пифагор | 1080p bober100 Скачать
1 | 0
Фильмы (WEB-DL 720p, 1080p) [ 6.49 GB ] Армия воров / Army of Thieves | Пифагор | 1080p bober100 Скачать
2 | 0
Фильмы 2021 [DVDrip, WEB-DLRip, HDrip] (DUB, MVO) [ 2.18 GB ] Армия воров / Army of Thieves | Лицензия | DLRip Twi7ter Скачать
4 | 0
Фильмы 2021 [DVDrip, WEB-DLRip, HDrip] (DUB, MVO) [ 1.46 GB ] Армия воров / Army of Thieves | Лицензия | DLRip Twi7ter Скачать
62 | 2
Фильмы 2021 [DVDrip, WEB-DLRip, HDrip] (DUB, MVO) [ 2.85 GB ] Армия воров / Army of Thieves | DUB | DLRip-AVC Lithuania Скачать
1 | 0
Фильмы 2021 [DVDrip, WEB-DLRip, HDrip] (DUB, MVO) [ 2.18 GB ] Армия воров / Army of Thieves | Пифагор | DLRip-AVC bober100 Скачать
2 | 0

28-11-2019 20:33  


Отключить вcю реклaмy на сайте, в т.ч. и в плеере онлайн просмотра!

01-11-2021 03:06 Армия воров Скачать торрент  

Абсолютно детский фильм впрочем как и все комиксы



    Дорогой пользователь! Огромная просьба, поблагодарите релизера, оцените раздачу и оставьте свои комментарий, если Вы скачали Армия воров через торрент бесплатно!!
    Комментировать посты могут только пользователи прошедшие не сложную регистрацию
    Показать сообщения:    


    Армия воров через торрент
    Скачать бесплатно Армия воров
    Армия воров скачать торрент
    Армия воров смотреть онлайн
    Cкачать фильм Армия воров бесплатно
    Армия воров скачать торрент в хорошем качестве
    Армия воров смотреть онлайн бесплатно в хорошем качестве
    Вы не можете начинать темы
    Вы не можете отвечать на сообщения
    Вы не можете редактировать свои сообщения
    Вы не можете удалять свои сообщения
    Вы не можете голосовать в опросах
    Вы не можете прикреплять файлы к сообщениям
    Вы можете скачивать файлы
    Армия воров / Army of Thieves [2021, Боевик, триллер, криминал, UHD WEB-DL-HEVC 2160p] Дубляж [Пифагор / Netflix] смотреть онлайн, скачать торрент picoco.icu