Присоединяйтесь к нам в Telegram!, здесь всегда актуальный адрес сайта, оперативная поддержка и многое другое!!

>

5.9

iTunes

7.4

iTunes

9.4

1 сезон

1

7.4

2 сезон

7.2

iTunes

7.3

1 сезон

13

6.1

iTunes

8.3

GOG

30

ULTIMATE

pack

9.9

Лицензия

ВАЖНО

ИГРА 18+

pack

7.3

RePack

MK11

7.7

RePack

jed

7.8

RePack

fifa19

8.5

RePack

RDR2

RePack

NEED FOR SPEED™ PAYBACK

5 сезон

9 сезон

Бесстыжие 9 сезон

Все сериалы

все сериалы на PB.wtf

RePack

FAR CRY 5

Anonymous, добрый день, мы катастрофически не успеваем собрать деньги на оплату серверов, помогите нам пожалуйста 5,10,15р., для нас важна любая помощь . В качестве благодарности мы отключим Вам всю рекламу на сайте (укажите свой ник в строку Ваше имя)!

×
  
Magnet ссылка

«Везёт» / Сезон: 1 / Серии: 1-5 из 8 (Владимир Щегольков) [2021 г., Комедия, драма, WEB-DLRip 720p] piratbit.org

«Везёт» через торрент piratbit.org

Раздают: 9 [ 10 KB/s ] Качают: 4 [ 0 KB/s ]
Размер: 3.54 GB | Добавлен: 7 д. назад | Торрент скачан:45 раз
Смотреть онлайн «Везёт» | Скачать    Ребята, помогите собрать деньги на оплату серверов!!!

04-11-2021 01:01 «Везёт» Скачать торрент  

«Везёт»
Год выпуска: 2021
Страна: Россия
Студия: АВК продакшн, Студия Чеховъ
Жанр: Комедия, драма
Продолжительность: ~ 00:35:00
Субтитры: Отсутствуют

Режиссер: Владимир Щегольков



В ролях:
Евгений Цыганов, Максим Лагашкин, Светлана Ходченкова, Владимир Меньшов, Тимофей Трибунцев, Кирилл Кяро, Сергей Газаров, Валентина Ляпина, Михаил Полицеймако, Яна Сексте, Юлия Снигирь, Зоя Бербер, Сергей Епишев, Андрей Зибров, Сергей Баталов, Игорь Жижикин, Олег Каменщиков, Юлия Полынская, Роман Ленков, Максим Дромашко, Андрей Москвичёв, Михаил Коновалов, Антон Никушин, Александра Соловьёва (IV), Александр Алексеев (VII), Олег Димидкин, Илья Носков (II), Алексей Барынин, Александр Кузнецов (X)

Описание:
Иван Потапов был чемпионом по мотогонкам на льду. Неудачный заезд на мототреке и серьезная травма стоили герою карьеры. Из-за начавшихся проблем с алкоголем и отсутствия постоянной работы семья распалась, и Иван остался совсем один. По иронии судьбы, герой работает «трезвым водителем» и каждый вечер развозит необычных пассажиров. Например, мужчину, которому надо попасть на встречу с инопланетянами; бизнесмена, решившего покончить с собой; малолетнюю ночную бабочку в бегах; замерзающего на ледяной трассе раввина … Развозя пассажиров и попадая в неожиданные и удивительные истории, Иван встретит инспектора ДПС Миху Паламарчук, циничного прохиндея, который станет ему верным другом. И заведет романтические и непредсказуемые отношения со Светланой Петровной, в прошлом — содержанкой состоятельных господ.

Качество: WEB-DLRip 720p
Формат: MKV
Видео кодек: AVC
Аудио кодек: AC3
Видео: 2569 Кбит/сек, 1280*536 (2,40:1), в 25,000 кадров/сек, AVC
Аудио: 384 Кбит/сек, 48,0 КГц, 16 бит, 6 каналов, AC-3
Общее
Уникальный идентификатор : 127630077590724379249694496212838287138 (0x6004A8A8AA95D7B4F1B1F0B9EB388722)
Полное имя : G:\Vezyot.2021.WEB-DL.720p\Vezyot.E01.2021.WEB-DL.720p.mkv
Формат : Matroska
Версия формата : Version 4
Размер файла : 716 Мбайт
Продолжительность : 33 м. 54 с.
Общий поток : 2953 Кбит/сек
Название фильма : Vezyot.E01.2021.WEB-DL.720p
Дата кодирования : UTC 2021-11-03 22:58:02
Программа кодирования : mkvmerge v62.0.0 ('Apollo') 64-bit
Библиотека кодирования : libebml v1.4.2 + libmatroska v1.6.4
Attachments : poster.jpg

Видео
Идентификатор : 1
Формат : AVC
Формат/Информация : Advanced Video Codec
Профиль формата : High@L4
Настройки формата : CABAC / 4 Ref Frames
Параметр CABAC формата : Да
Параметр RefFrames формата : 4 кадра
Идентификатор кодека : V_MPEG4/ISO/AVC
Продолжительность : 33 м. 54 с.
Битрейт : 2569 Кбит/сек
Ширина : 1280 пикселей
Высота : 536 пикселей
Соотношение сторон : 2,40:1
Режим частоты кадров : Постоянный
Частота кадров : 25,000 кадров/сек
Цветовое пространство : YUV
Субдискретизация насыщенности : 4:2:0
Битовая глубина : 8 бит
Тип развёртки : Прогрессивная
Бит/(Пиксели*Кадры) : 0.150
Размер потока : 622 Мбайт (87%)
Библиотека кодирования : x264 core 152 r2854 e9a5903
Настройки программы : cabac=1 / ref=3 / deblock=1:0:0 / analyse=0x3:0x113 / me=hex / subme=7 / psy=1 / psy_rd=1.00:0.00 / mixed_ref=1 / me_range=16 / chroma_me=1 / trellis=1 / 8x8dct=1 / cqm=0 / deadzone=21,11 / fast_pskip=1 / chroma_qp_offset=-2 / threads=17 / lookahead_threads=2 / sliced_threads=0 / nr=0 / decimate=1 / interlaced=0 / bluray_compat=0 / constrained_intra=0 / bframes=6 / b_pyramid=2 / b_adapt=1 / b_bias=0 / direct=1 / weightb=1 / open_gop=0 / weightp=2 / keyint=50 / keyint_min=26 / scenecut=0 / intra_refresh=0 / rc_lookahead=40 / rc=2pass / mbtree=1 / bitrate=2569 / ratetol=1.0 / qcomp=0.60 / qpmin=0 / qpmax=69 / qpstep=4 / cplxblur=20.0 / qblur=0.5 / vbv_maxrate=3854 / vbv_bufsize=10279 / nal_hrd=none / filler=0 / ip_ratio=1.40 / aq=1:1.00
Default : Да
Forced : Нет

Аудио
Идентификатор : 2
Формат : AC-3
Формат/Информация : Audio Coding 3
Коммерческое название : Dolby Digital
Идентификатор кодека : A_AC3
Продолжительность : 33 м. 54 с.
Вид битрейта : Постоянный
Битрейт : 384 Кбит/сек
Каналы : 6 каналов
ChannelLayout : L R C LFE Ls Rs
Частота : 48,0 КГц
Частота кадров : 31,250 кадров/сек (1536 SPF)
Битовая глубина : 16 бит
Метод сжатия : С потерями
Размер потока : 93,1 Мбайт (13%)
ServiceKind/String : Complete Main
Default : Да
Forced : Нет
Внимание! Раздача ведётся путём добавления новых серий; при каждом добавлении создаётся новый торрент. Чтобы начать докачку новой серии, пользователям необходимо сделать следующее:
(1) остановить скачивание,
(2) удалить старый торрент у себя из клиента (старые серии удалять не надо),
(3) скачать новый торрент и запустить его у себя в клиенте вместо старого, при этом указать клиенту путь в старую папку куда и должно происходить скачивание новых серий.

Ваш клиент при этом должен произвести хеширование (проверку) старой папки (если не производит сам - помогите ему сделать это), и будет докачивать только те серии которых у вас ещё нет. Старые серии при этом не удаляются, а продолжают раздаваться!

Eсли вы уже удалили старые серии, то предотвратить повторную закачку старых серий можно, отжав галочку в соответствующих местах при запуске нового торрента. По возможности, желательно не удалять старые серии как можно дольше чтобы релизёр не столько продолжал раздавать старые серии, а смог сконцентрироваться на новых.


Скриншоты:
скриншот   скриншот   скриншот   скриншот   скриншот   скриншот   скриншот   
скриншот  
piratbit.org



Скачать «Везёт» через торрент https://pic1.kartinco.top/new/img/2021-11/04/03wf96w0qjlxzpbvhw2oxmqif.jpg Скачать, смотреть онлайн «Везёт» бесплантно в хорошем качестве Описание: Иван Потапов был чемпионом по мотогонкам на льду. Неудачный заезд на мототреке и серьезная травма стоили герою карьеры. Из-за ... 10 10 12
Торрент: Зарегистрирован [2021-11-25 04:52] · скачан: 45 раз
Статус: √ проверено
Размер: 3.54 GB
Как cкачать? Как скачать «Везёт» через торрент | UTorrent



Последний раз редактировалось: GEKADOL (2021-11-25 04:52), всего редактировалось 2 раз(а)

28-11-2019 20:33  

Отключить всю рекламу на сайте

11-11-2021 12:17 «Везёт» Скачать торрент  

А хорошо, понравилось. Не мыло и актеры приятные.piratbit.org



18-11-2021 07:55 «Везёт» Скачать торрент  

Блин, каждая серия радует. Хорошее, ага.
Гек, отдельное спасибо.piratbit.org



20-11-2021 01:19 «Везёт» Скачать торрент  

Bobr751 писал(а):

Блин, каждая серия радует. Хорошее, ага.
Гек, отдельное спасибо.

piratbit.org



    Дорогой пользователь! Огромная просьба, поблагодарите релизера, оцените раздачу и оставьте свои комментарий, если Вы скачали «Везёт» через торрент бесплатно!
    Комментировать посты могут только пользователи прошедшие не сложную регистрацию
    Показать сообщения:    

    «Везёт» через торрент
    Скачать бесплатно «Везёт»
    «Везёт» скачать торрент
    «Везёт» смотреть онлайн
    Cкачать фильм «Везёт» бесплатно
    «Везёт» скачать торрент в хорошем качестве
    «Везёт» смотреть онлайн бесплатно в хорошем качестве


    Вы не можете начинать темы
    Вы не можете отвечать на сообщения
    Вы не можете редактировать свои сообщения
    Вы не можете удалять свои сообщения
    Вы не можете голосовать в опросах
    Вы не можете прикреплять файлы к сообщениям
    Вы можете скачивать файлы