Достать ножи: Стеклянная луковица

MVO

Добыча

Дубляж

Уэнсдэй

1 сезон

Тор

Дубляж

13 клиническая

1 сезон

Жестокая ночь

MVO

Одни из нас

1 сезон

Deluxe

pack

Рекомендуем

30

Пиратка

ВАЖНО

ВАЖНО

Ghostwire

Пиратка

jed

RePack

nioh2

RePack

RDR2

RePack

NEED FOR SPEED™ PAYBACK

RePack

скачать торрент

Кинопоиск HD

Острые козырьки 6 сезон

6 сезон

FAR CRY 6

RePack

скачать торрент

Лицензия

скачать торрент

MVO

1

1 сезон

скачать торрент

1 сезон

скачать торрент

Лицензия

  

На высоте мечты / In the Heights (Джон М. Чу) [2021, Мюзикл, мелодрама, драма, UHD BDRemux 2160p, (Dolby Vision Profile 8)] Дубляж [КиноПоиск HD]

На высоте мечты через торрент piratbit.org

Размер: 78.01 GB | Добавлен: 1 год 3 мес. назад | Торрент скачан:6 раз
Смотреть онлайн | Скачать | Поддержите нас   

04-11-2021 03:51 На высоте мечты Скачать торрент  

На высоте мечты | In the Heights
Год выпуска: 2021
Страна: США
Студия: 5000 Broadway Productions, Likely Story, Scott Sanders Productions, Warner Bros.
Жанр: Мюзикл, мелодрама, драма
Продолжительность: 02:22:59
Перевод: Дублированный | КиноПоиск HD
Субтитры: Русские (Forced, full), английские

Режиссер: Джон М. Чу

rating

В ролях: Стефани Беатриз, Лин-Мануэль Миранда, Даша Поланко, Сьюзан Пурфар, Джимми Смитс, Энтони Рамос, Мелисса Баррера, Кори Хоукинс, Ариана Гринблатт, Марк Энтони, Дафна Рубин-Вега, Ольга Мередис, Лесли Грэйс

Описание: Герои фильма — жители района Вашингтон Хайтс, что на севере Манхэттена. Уснави — владелец винного погребка, который присматривает за пожилой соседкой-кубинкой, мечтает о красотке из местного салона красоты и надеется выиграть в лотерею, чтобы уехать к берегам родной Доминиканы. Тем временем, из колледжа на каникулы возвращается подруга его детства Нина, с сюрпризом для родителей.

Качество: UHD BDRemux 2160p | Dolby Vision Profile 8
Формат: MKV

Видео: 3840x2160 at 23.976 fps, MPEG-H HEVC HDR Video, ~ 73500 kbps avg
Аудио #01: 48 kHz, E-AC3, 5.1, 448 Kbps | Дублированный | Кинопоиск HD | RUS |
Аудио #02: 48 kHz, AC3, 5.1, 448 Kbps | Дублированный | Кинопоиск HD | RUS |
Аудио #03: 48 kHz, TrueHD, 7.1, 3224 Kbps | Оригинал | ENG |
Аудио #04: 48 kHz, AC3, 5.1, 448 Kbps | Оригинал | ENG |
скриншот  скриншот  скриншот  скриншот  скриншот  

General
Unique ID : 152393924735468761337527511500731736656 (0x72A60096AC0D0BC4C21CEB3DD0506250)
Complete name : E:VideoIn.the.Heights.2021.BDREMUX.2160p.HDR.DVP8.seleZen.mkv
Format : Matroska
Format version : Version 4
File size : 78.0 GiB
Duration : 2 h 22 min
Overall bit rate mode : Variable
Overall bit rate : 78.1 Mb/s
Movie name : In the Heights 2021 from seleZen
Encoded date : UTC 2021-11-03 22:04:23
Writing application : mkvmerge v59.0.0 ('Shining Star') 64-bit
Writing library : libebml v1.4.2 + libmatroska v1.6.4

Video
ID : 1
ID in the original source medium : 4117 (0x1015)
Format : HEVC
Format/Info : High Efficiency Video Coding
Format profile : Main 10@L5.1@High
HDR format : Dolby Vision, Version 1.0, dvhe.08.06, BL+RPU, Blu-ray compatible / SMPTE ST 2094 App 4, Version 1, HDR10+ Profile B compatible
Codec ID : V_MPEGH/ISO/HEVC
Duration : 2 h 22 min
Bit rate : 73.5 Mb/s
Width : 3 840 pixels
Height : 2 160 pixels
Display aspect ratio : 16:9
Frame rate mode : Constant
Frame rate : 23.976 (24000/1001) FPS
Color space : YUV
Chroma subsampling : 4:2:0 (Type 2)
Bit depth : 10 bits
Bits/(Pixel*Frame) : 0.369
Stream size : 73.4 GiB (94%)
Language : English
Default : No
Forced : No
Color range : Limited
Color primaries : BT.2020
Transfer characteristics : PQ
Matrix coefficients : BT.2020 non-constant
Mastering display color primaries : Display P3
Mastering display luminance : min: 0.0001 cd/m2, max: 1000 cd/m2
Maximum Content Light Level : 721 cd/m2
Maximum Frame-Average Light Level : 227 cd/m2
Original source medium : Blu-ray

Audio #1
ID : 2
Format : E-AC-3
Format/Info : Enhanced AC-3
Commercial name : Dolby Digital Plus
Codec ID : A_EAC3
Duration : 2 h 22 min
Bit rate mode : Constant
Bit rate : 448 kb/s
Channel(s) : 6 channels
Channel layout : L R C LFE Ls Rs
Sampling rate : 48.0 kHz
Frame rate : 31.250 FPS (1536 SPF)
Compression mode : Lossy
Stream size : 458 MiB (1%)
Title : Дубляж
Language : Russian
Service kind : Complete Main
Default : Yes
Forced : Yes

Audio #2
ID : 3
Format : AC-3
Format/Info : Audio Coding 3
Commercial name : Dolby Digital
Codec ID : A_AC3
Duration : 2 h 22 min
Bit rate mode : Constant
Bit rate : 448 kb/s
Channel(s) : 6 channels
Channel layout : L R C LFE Ls Rs
Sampling rate : 48.0 kHz
Frame rate : 31.250 FPS (1536 SPF)
Compression mode : Lossy
Stream size : 458 MiB (1%)
Title : Дубляж
Language : Russian
Service kind : Complete Main
Default : No
Forced : No

Audio #3
ID : 4
Format : MLP FBA 16-ch
Format/Info : Meridian Lossless Packing FBA with 16-channel presentation
Commercial name : Dolby TrueHD with Dolby Atmos
Codec ID : A_TRUEHD
Duration : 2 h 22 min
Bit rate mode : Variable
Bit rate : 3 224 kb/s
Maximum bit rate : 4 650 kb/s
Channel(s) : 8 channels
Channel layout : L R C LFE Ls Rs Lb Rb
Sampling rate : 48.0 kHz
Frame rate : 1 200.000 FPS (40 SPF)
Compression mode : Lossless
Stream size : 3.22 GiB (4%)
Title : Original
Language : English
Default : No
Forced : No
Number of dynamic objects : 11
Bed channel count : 1 channel
Bed channel configuration : LFE

Audio #4
ID : 5
Format : AC-3
Format/Info : Audio Coding 3
Commercial name : Dolby Digital
Format settings : Dolby Surround EX
Codec ID : A_AC3
Duration : 2 h 22 min
Bit rate mode : Constant
Bit rate : 448 kb/s
Channel(s) : 6 channels
Channel layout : L R C LFE Ls Rs
Sampling rate : 48.0 kHz
Frame rate : 31.250 FPS (1536 SPF)
Compression mode : Lossy
Stream size : 458 MiB (1%)
Language : English
Service kind : Complete Main
Default : No
Forced : No

Text #1
ID : 6
Format : UTF-8
Codec ID : S_TEXT/UTF8
Codec ID/Info : UTF-8 Plain Text
Duration : 2 h 22 min
Bit rate : 66 b/s
Count of elements : 1155
Stream size : 68.8 KiB (0%)
Title : Songs
Language : Russian
Default : Yes
Forced : Yes

Text #2
ID : 7
Format : UTF-8
Codec ID : S_TEXT/UTF8
Codec ID/Info : UTF-8 Plain Text
Duration : 2 h 22 min
Bit rate : 115 b/s
Count of elements : 2229
Stream size : 121 KiB (0%)
Title : Full
Language : Russian
Default : No
Forced : No

Text #3
ID : 8
Format : UTF-8
Codec ID : S_TEXT/UTF8
Codec ID/Info : UTF-8 Plain Text
Duration : 2 h 22 min
Bit rate : 76 b/s
Count of elements : 2255
Stream size : 79.8 KiB (0%)
Title : Full
Language : English
Default : No
Forced : No

Menu
00:00:00.000 : Chapter 01
00:11:08.459 : Chapter 02
00:18:18.180 : Chapter 03
00:26:28.253 : Chapter 04
00:30:08.140 : Chapter 05
00:37:37.714 : Chapter 06
00:43:58.594 : Chapter 07
00:50:53.676 : Chapter 08
00:59:38.825 : Chapter 09
01:03:36.563 : Chapter 10
01:12:32.265 : Chapter 11
01:23:02.269 : Chapter 12
01:32:45.477 : Chapter 13
01:40:51.712 : Chapter 14
01:51:08.370 : Chapter 15
01:55:44.604 : Chapter 16
02:04:37.595 : Chapter 17
02:14:58.507 : Chapter 18
02:21:45.831 : Chapter 19




Скачать На высоте мечты через торрент https://st-kp-yandex-net.translate.goog/images/film_iphone/iphone360_464302.jpg Скачать, смотреть онлайн На высоте мечты бесплантно в хорошем качестве Описание: Герои фильма — жители района Вашингтон Хайтс, что на севере Манхэттена. Уснави — владелец винного погребка, который присматривает ... 10 10 4
Info! Золотая раздача, скачанное не засчитывается.
Торрент: Зарегистрирован [2021-11-04 03:51] · скачан: 6 раз
Статус: √ проверено
Размер: 78.01 GB
Как cкачать? Как скачать На высоте мечты через торрент | UTorrent

28-11-2019 20:33  


Отключить вcю реклaмy на сайте, в т.ч. и в плеере онлайн просмотра!

    Дорогой пользователь! Огромная просьба, поблагодарите релизера, оцените раздачу и оставьте свои комментарий, если Вы скачали На высоте мечты через торрент бесплатно!!
    Комментировать посты могут только пользователи прошедшие не сложную регистрацию
    Показать сообщения:    


    На высоте мечты через торрент
    Скачать бесплатно На высоте мечты
    На высоте мечты скачать торрент
    На высоте мечты смотреть онлайн
    Cкачать фильм На высоте мечты бесплатно
    На высоте мечты скачать торрент в хорошем качестве
    На высоте мечты смотреть онлайн бесплатно в хорошем качестве
    Вы не можете начинать темы
    Вы не можете отвечать на сообщения
    Вы не можете редактировать свои сообщения
    Вы не можете удалять свои сообщения
    Вы не можете голосовать в опросах
    Вы не можете прикреплять файлы к сообщениям
    Вы можете скачивать файлы
    На высоте мечты / In the Heights [2021, Мюзикл, мелодрама, драма, UHD BDRemux 2160p, ] Дубляж [КиноПоиск HD] смотреть онлайн, скачать торрент picoco.icu