Достать ножи: Стеклянная луковица

MVO

Добыча

Дубляж

Уэнсдэй

1 сезон

Тор

Дубляж

13 клиническая

1 сезон

Жестокая ночь

MVO

Одни из нас

1 сезон

Deluxe

pack

Рекомендуем

30

Пиратка

ВАЖНО

ВАЖНО

Ghostwire

Пиратка

jed

RePack

nioh2

RePack

RDR2

RePack

NEED FOR SPEED™ PAYBACK

RePack

скачать торрент

Кинопоиск HD

Острые козырьки 6 сезон

6 сезон

FAR CRY 6

RePack

скачать торрент

Лицензия

скачать торрент

MVO

1

1 сезон

скачать торрент

1 сезон

скачать торрент

Лицензия

  

Воспоминания / Reminiscence (Лиза Джой) [2021, Фантастика, триллер, мелодрама, детектив, UHD BDRemux 2160p] Дубляж [Пифагор]

Воспоминания через торрент piratbit.org

Размер: 46.03 GB | Добавлен: 1 год 3 мес. назад | Торрент скачан:40 раз
Смотреть онлайн | Скачать | Поддержите нас   

04-11-2021 15:29 Воспоминания Скачать торрент  

Воспоминания | Reminiscence
Год выпуска: 2021
Страна: США
Выпущено: FilmNation EntertainmentKilter FilmsMichael De Luca Productions
Жанр: Фантастика, триллер, мелодрама, детектив
Продолжительность: 01:55:59
Перевод: Дублированный | Пифагор
Субтитры: Русские (Forced, full), английские

Режиссер: Лиза Джой

rating

В ролях: Ребекка Фергюсон, Хью Джекман, Тандиве Ньютон, Натали Мартинес, Анджела Сарафян, Клифф Кёртис, Бретт Каллен, Джованни Крус, Дэниэл Ву, Тери Уайбл

Описание: Недалёкое будущее, Майами почти полностью ушёл под воду из-за глобального потепления. Частный детектив Ник Баннистер с помощью специальной технологии выискивает в человеческой памяти нужные моменты, чтобы заказчик мог заново пережить прошлое и вспомнить что-то важное. Однажды на пороге его офиса появляется клиентка с простой просьбой: она забыла, где оставила ключи. Обычная сессия превращается в полноценный роман, пока в один день женщина не исчезает без следа.

Качество: UHD BDRemux 2160p
Формат: MKV

Видео: 3840x2160 at 23.976 fps, MPEG-H HEVC HDR Video, ~ 73500 kbps avg
Аудио #01: 48 kHz, E-AC3, 5.1, 448 Kbps | Дублированный | Пифагор | RUS |
Аудио #02: 48 kHz, AC3, 5.1, 448 Kbps | Дублированный | Пифагор | RUS |
Аудио #03: 48 kHz, TrueHD, 7.1, 3062 Kbps | Оригинал | ENG |
Аудио #04: 48 kHz, AC3, 5.1, 640 Kbps | Оригинал | ENG |
скриншот  скриншот  скриншот  скриншот  скриншот  

General
Unique ID : 53352080690712554281060030418694099069 (0x28233CAAB4A22BA5E722ED14A0FED07D)
Complete name : E:VideoReminiscence.2021.BDREMUX.2160p.HDR.DVP8.seleZen.mkv
Format : Matroska
Format version : Version 4
File size : 46.0 GiB
Duration : 1 h 55 min
Overall bit rate mode : Variable
Overall bit rate : 56.8 Mb/s
Movie name : Reminiscence 2021 from seleZen
Encoded date : UTC 2021-11-04 14:13:38
Writing application : mkvmerge v59.0.0 ('Shining Star') 64-bit
Writing library : libebml v1.4.2 + libmatroska v1.6.4

Video
ID : 1
ID in the original source medium : 4117 (0x1015)
Format : HEVC
Format/Info : High Efficiency Video Coding
Format profile : Main 10@L5.1@High
HDR format : Dolby Vision, Version 1.0, dvhe.08.06, BL+RPU, Blu-ray compatible / SMPTE ST 2086, HDR10 compatible
Codec ID : V_MPEGH/ISO/HEVC
Duration : 1 h 55 min
Bit rate : 52.3 Mb/s
Width : 3 840 pixels
Height : 2 160 pixels
Display aspect ratio : 16:9
Frame rate mode : Constant
Frame rate : 23.976 (24000/1001) FPS
Color space : YUV
Chroma subsampling : 4:2:0 (Type 2)
Bit depth : 10 bits
Bits/(Pixel*Frame) : 0.263
Stream size : 42.4 GiB (92%)
Language : English
Default : No
Forced : No
Color range : Limited
Color primaries : BT.2020
Transfer characteristics : PQ
Matrix coefficients : BT.2020 non-constant
Mastering display color primaries : Display P3
Mastering display luminance : min: 0.0050 cd/m2, max: 4000 cd/m2
Maximum Content Light Level : 1216 cd/m2
Maximum Frame-Average Light Level : 98 cd/m2
Original source medium : Blu-ray

Audio #1
ID : 2
Format : E-AC-3
Format/Info : Enhanced AC-3
Commercial name : Dolby Digital Plus
Codec ID : A_EAC3
Duration : 1 h 55 min
Bit rate mode : Constant
Bit rate : 448 kb/s
Channel(s) : 6 channels
Channel layout : L R C LFE Ls Rs
Sampling rate : 48.0 kHz
Frame rate : 31.250 FPS (1536 SPF)
Compression mode : Lossy
Stream size : 372 MiB (1%)
Title : Дубляж [Pifagor]
Language : Russian
Service kind : Complete Main
Default : Yes
Forced : Yes

Audio #2
ID : 3
Format : AC-3
Format/Info : Audio Coding 3
Commercial name : Dolby Digital
Codec ID : A_AC3
Duration : 1 h 55 min
Bit rate mode : Constant
Bit rate : 448 kb/s
Channel(s) : 6 channels
Channel layout : L R C LFE Ls Rs
Sampling rate : 48.0 kHz
Frame rate : 31.250 FPS (1536 SPF)
Compression mode : Lossy
Stream size : 372 MiB (1%)
Title : Дубляж [Pifagor]
Language : Russian
Service kind : Complete Main
Default : No
Forced : No

Audio #3
ID : 4
Format : MLP FBA 16-ch
Format/Info : Meridian Lossless Packing FBA with 16-channel presentation
Commercial name : Dolby TrueHD with Dolby Atmos
Codec ID : A_TRUEHD
Duration : 1 h 55 min
Bit rate mode : Variable
Bit rate : 3 062 kb/s
Maximum bit rate : 4 716 kb/s
Channel(s) : 8 channels
Channel layout : L R C LFE Ls Rs Lb Rb
Sampling rate : 48.0 kHz
Frame rate : 1 200.000 FPS (40 SPF)
Compression mode : Lossless
Stream size : 2.48 GiB (5%)
Title : Original
Language : English
Default : No
Forced : No
Number of dynamic objects : 11
Bed channel count : 1 channel
Bed channel configuration : LFE

Audio #4
ID : 5
Format : AC-3
Format/Info : Audio Coding 3
Commercial name : Dolby Digital
Format settings : Dolby Surround EX
Codec ID : A_AC3
Duration : 1 h 55 min
Bit rate mode : Constant
Bit rate : 448 kb/s
Channel(s) : 6 channels
Channel layout : L R C LFE Ls Rs
Sampling rate : 48.0 kHz
Frame rate : 31.250 FPS (1536 SPF)
Compression mode : Lossy
Stream size : 372 MiB (1%)
Language : English
Service kind : Complete Main
Default : No
Forced : No

Text #1
ID : 6
Format : UTF-8
Codec ID : S_TEXT/UTF8
Codec ID/Info : UTF-8 Plain Text
Duration : 1 h 36 min
Bit rate : 2 b/s
Count of elements : 39
Stream size : 1.63 KiB (0%)
Title : Forced
Language : Russian
Default : Yes
Forced : Yes

Text #2
ID : 7
Format : UTF-8
Codec ID : S_TEXT/UTF8
Codec ID/Info : UTF-8 Plain Text
Duration : 1 h 47 min
Bit rate : 98 b/s
Count of elements : 1489
Stream size : 77.4 KiB (0%)
Title : Full
Language : Russian
Default : No
Forced : No

Text #3
ID : 8
Format : UTF-8
Codec ID : S_TEXT/UTF8
Codec ID/Info : UTF-8 Plain Text
Duration : 1 h 50 min
Bit rate : 62 b/s
Count of elements : 1623
Stream size : 51.1 KiB (0%)
Language : English
Default : No
Forced : No

Menu
00:00:00.000 : Chapter 01
00:09:31.446 : Chapter 02
00:16:54.055 : Chapter 03
00:25:04.712 : Chapter 04
00:34:40.704 : Chapter 05
00:42:31.299 : Chapter 06
00:51:19.201 : Chapter 07
01:00:36.800 : Chapter 08
01:09:12.815 : Chapter 09
01:18:36.837 : Chapter 10
01:28:21.713 : Chapter 11
01:38:00.041 : Chapter 12
01:41:52.106 : Chapter 13
01:49:30.355 : Chapter 14




Скачать Воспоминания через торрент https://st-kp-yandex-net.translate.goog/images/film_iphone/iphone360_811078.jpg Скачать, смотреть онлайн Воспоминания бесплантно в хорошем качестве Описание: Недалёкое будущее, Майами почти полностью ушёл под воду из-за глобального потепления. Частный детектив Ник Баннистер с помощью ... 10 10 4
Торрент: Зарегистрирован [2021-11-04 15:29] · скачан: 40 раз
Статус: √ проверено
Размер: 46.03 GB
Как cкачать? Как скачать Воспоминания через торрент | UTorrent

% Раздел Тема Автор DL S | L
Фильмы 2021 [DVDrip, WEB-DLRip, HDrip] (DUB, MVO) [ 1.47 GB ] Воспоминания / Reminiscence | Пифагор | BDRip bober100 Скачать
2 | 0
Фильмы 2021 [DVDrip, WEB-DLRip, HDrip] (DUB, MVO) [ 2.18 GB ] Воспоминания / Reminiscence | Лицензия | BDRip Twi7ter Скачать
6 | 0
Фильмы 2021 [DVDrip, WEB-DLRip, HDrip] (DUB, MVO) [ 1.46 GB ] Воспоминания / Reminiscence | Лицензия | BDRip Twi7ter Скачать
9 | 2
Фильмы 2021 [DVDrip, WEB-DLRip, HDrip] (DUB, MVO) [ 2.19 GB ] Воспоминания / Reminiscence | Пифагор | BDRip bober100 Скачать
2 | 0
Фильмы 2021 [DVDrip, WEB-DLRip, HDrip] (DUB, MVO) [ 2.23 GB ] Воспоминания / Reminiscence | Пифагор | HDRip-AVC Lithuania Скачать
1 | 0
Ultra HD (UHD: 2K, 4K, 8K) [ 20.14 GB ] Воспоминания / Reminiscence | Пифагор | 2160p bober100 Скачать
2 | 0
Ultra HD (UHD: 2K, 4K, 8K) [ 48.48 GB ] Воспоминания / Reminiscence | Пифагор | 2160p, (Dolby Vision bober100 Скачать
1 | 0

28-11-2019 20:33  


Отключить вcю реклaмy на сайте, в т.ч. и в плеере онлайн просмотра!

    Дорогой пользователь! Огромная просьба, поблагодарите релизера, оцените раздачу и оставьте свои комментарий, если Вы скачали Воспоминания через торрент бесплатно!!
    Комментировать посты могут только пользователи прошедшие не сложную регистрацию
    Показать сообщения:    


    Воспоминания через торрент
    Скачать бесплатно Воспоминания
    Воспоминания скачать торрент
    Воспоминания смотреть онлайн
    Cкачать фильм Воспоминания бесплатно
    Воспоминания скачать торрент в хорошем качестве
    Воспоминания смотреть онлайн бесплатно в хорошем качестве
    Вы не можете начинать темы
    Вы не можете отвечать на сообщения
    Вы не можете редактировать свои сообщения
    Вы не можете удалять свои сообщения
    Вы не можете голосовать в опросах
    Вы не можете прикреплять файлы к сообщениям
    Вы можете скачивать файлы
    Воспоминания / Reminiscence [2021, Фантастика, триллер, мелодрама, детектив, UHD BDRemux 2160p] Дубляж [Пифагор] смотреть онлайн, скачать торрент picoco.icu