Достать ножи: Стеклянная луковица

MVO

Добыча

Дубляж

Уэнсдэй

1 сезон

Тор

Дубляж

13 клиническая

1 сезон

Жестокая ночь

MVO

Одни из нас

1 сезон

Deluxe

pack

Рекомендуем

30

Пиратка

ВАЖНО

ВАЖНО

Ghostwire

Пиратка

jed

RePack

nioh2

RePack

RDR2

RePack

NEED FOR SPEED™ PAYBACK

RePack

скачать торрент

Кинопоиск HD

Острые козырьки 6 сезон

6 сезон

FAR CRY 6

RePack

скачать торрент

Лицензия

скачать торрент

MVO

1

1 сезон

скачать торрент

1 сезон

скачать торрент

Лицензия

  

Воспоминания / Reminiscence (Лиза Джой) [2021, Фантастика, триллер, мелодрама, детектив, UHD BDRip 2160p] Дубляж [Пифагор]

Воспоминания через торрент piratbit.org

Размер: 20.14 GB | Добавлен: 1 год 2 мес. назад | Торрент скачан:111 раз
Смотреть онлайн | Скачать | Поддержите нас   

05-11-2021 17:06 Воспоминания Скачать торрент  

Воспоминания | Reminiscence
Год выпуска: 2021
Страна: США
Выпущено: FilmNation EntertainmentKilter FilmsMichael De Luca Productions
Жанр: Фантастика, триллер, мелодрама, детектив
Продолжительность: 01:55:59
Перевод: Дублированный | Пифагор
Субтитры: Русские (Forced, full), английские

Режиссер: Лиза Джой

rating

В ролях: Ребекка Фергюсон, Хью Джекман, Тандиве Ньютон, Натали Мартинес, Анджела Сарафян, Клифф Кёртис, Бретт Каллен, Джованни Крус, Дэниэл Ву, Тери Уайбл

Описание: Недалёкое будущее, Майами почти полностью ушёл под воду из-за глобального потепления. Частный детектив Ник Баннистер с помощью специальной технологии выискивает в человеческой памяти нужные моменты, чтобы заказчик мог заново пережить прошлое и вспомнить что-то важное. Однажды на пороге его офиса появляется клиентка с простой просьбой: она забыла, где оставила ключи. Обычная сессия превращается в полноценный роман, пока в один день женщина не исчезает без следа.

Качество: UHD BDRip 2160p
Формат: MKV

Видео: 3840x1604 at 23.976 fps, MPEG-H HEVC HDR Video, ~ 23300 kbps avg
Аудио #01: 48 kHz, E-AC3, 5.1, 448 Kbps | Дублированный | Пифагор | RUS |
Аудио #02: 48 kHz, AC3, 5.1, 448 Kbps | Дублированный | Пифагор | RUS |
Аудио #03: 48 kHz, AC3, 5.1, 640 Kbps | Оригинал | ENG |
скриншот  скриншот  скриншот  скриншот  скриншот  

General
Unique ID : 139552113840964317261536579693494601389 (0x68FCC26D99F6B735B7C1E9E3818306AD)
Complete name : E:VideoReminiscence.2021.BDRip.2160p.HDR.seleZen.mkv
Format : Matroska
Format version : Version 4
File size : 20.1 GiB
Duration : 1 h 55 min
Overall bit rate : 24.9 Mb/s
Movie name : Reminiscence 2021 from seleZen
Encoded date : UTC 2021-11-05 00:49:36
Writing application : mkvmerge v59.0.0 ('Shining Star') 64-bit
Writing library : libebml v1.4.2 + libmatroska v1.6.4

Video
ID : 1
Format : HEVC
Format/Info : High Efficiency Video Coding
Format profile : Main 10@L5@Main
HDR format : SMPTE ST 2086, HDR10 compatible
Codec ID : V_MPEGH/ISO/HEVC
Duration : 1 h 55 min
Bit rate : 23.3 Mb/s
Width : 3 840 pixels
Height : 1 604 pixels
Display aspect ratio : 2.40:1
Frame rate mode : Constant
Frame rate : 23.976 (23976/1000) FPS
Color space : YUV
Chroma subsampling : 4:2:0 (Type 2)
Bit depth : 10 bits
Bits/(Pixel*Frame) : 0.158
Stream size : 18.9 GiB (94%)
Writing library : x265 3.5+10-82786fccc:[Windows][MSVC 1929][64 bit] 10bit
Encoding settings : cpuid=1111039 / frame-threads=5 / numa-pools=36,36 / wpp / no-pmode / no-pme / no-psnr / no-ssim / log-level=2 / input-csp=1 / input-res=3840x1604 / interlace=0 / total-frames=0 / level-idc=0 / high-tier=1 / uhd-bd=0 / ref=6 / no-allow-non-conformance / repeat-headers / annexb / no-aud / no-eob / no-eos / no-hrd / info / hash=0 / no-temporal-layers / no-open-gop / min-keyint=23 / keyint=250 / gop-lookahead=0 / bframes=14 / b-adapt=2 / b-pyramid / bframe-bias=0 / rc-lookahead=75 / lookahead-slices=8 / scenecut=40 / hist-scenecut=0 / radl=0 / no-splice / no-intra-refresh / ctu=32 / min-cu-size=8 / no-rect / no-amp / max-tu-size=32 / tu-inter-depth=1 / tu-intra-depth=1 / limit-tu=0 / rdoq-level=2 / dynamic-rd=0.00 / no-ssim-rd / signhide / no-tskip / nr-intra=0 / nr-inter=0 / no-constrained-intra / no-strong-intra-smoothing / max-merge=3 / limit-refs=1 / no-limit-modes / me=3 / subme=7 / merange=64 / temporal-mvp / no-frame-dup / no-hme / weightp / weightb / no-analyze-src-pics / deblock=0:0 / no-sao / no-sao-non-deblock / rd=4 / selective-sao=0 / no-early-skip / rskip / no-fast-intra / no-tskip-fast / no-cu-lossless / b-intra / no-splitrd-skip / rdpenalty=2 / psy-rd=3.00 / psy-rdoq=4.80 / no-rd-refine / no-lossless / cbqpoffs=0 / crqpoffs=0 / rc=crf / crf=15.5 / qcomp=0.60 / qpstep=4 / stats-write=0 / stats-read=0 / ipratio=1.40 / pbratio=1.30 / aq-mode=1 / aq-strength=1.00 / cutree / zone-count=0 / no-strict-cbr / qg-size=32 / no-rc-grain / qpmax=69 / qpmin=0 / no-const-vbv / sar=0 / overscan=0 / videoformat=5 / range=0 / colorprim=9 / transfer=16 / colormatrix=9 / chromaloc=1 / chromaloc-top=2 / chromaloc-bottom=2 / display-window=0 / master-display=G(13250,34500)B(7500,3000)R(34000,16000)WP(15635,16450)L(40000000,50) / cll=1216,98 / min-luma=0 / max-luma=1023 / log2-max-poc-lsb=8 / vui-timing-info / vui-hrd-info / slices=1 / no-opt-qp-pps / no-opt-ref-list-length-pps / no-multi-pass-opt-rps / scenecut-bias=0.05 / hist-threshold=0.03 / no-opt-cu-delta-qp / aq-motion / hdr10 / hdr10-opt / no-dhdr10-opt / no-idr-recovery-sei / analysis-reuse-level=0 / analysis-save-reuse-level=0 / analysis-load-reuse-level=0 / scale-factor=0 / refine-intra=0 / refine-inter=0 / refine-mv=1 / refine-ctu-distortion=0 / no-limit-sao / ctu-info=0 / no-lowpass-dct / refine-analysis-type=0 / copy-pic=1 / max-ausize-factor=1.0 / no-dynamic-refine / no-single-sei / no-hevc-aq / no-svt / no-field / qp-adaptation-range=1.00 / scenecut-aware-qp=0conformance-window-offsets / right=0 / bottom=0 / decoder-max-rate=0 / no-vbv-live-multi-pass
Default : Yes
Forced : No
Color range : Limited
Color primaries : BT.2020
Transfer characteristics : PQ
Matrix coefficients : BT.2020 non-constant
Mastering display color primaries : Display P3
Mastering display luminance : min: 0.0050 cd/m2, max: 4000 cd/m2
Maximum Content Light Level : 1216 cd/m2
Maximum Frame-Average Light Level : 98 cd/m2

Audio #1
ID : 2
Format : E-AC-3
Format/Info : Enhanced AC-3
Commercial name : Dolby Digital Plus
Codec ID : A_EAC3
Duration : 1 h 55 min
Bit rate mode : Constant
Bit rate : 448 kb/s
Channel(s) : 6 channels
Channel layout : L R C LFE Ls Rs
Sampling rate : 48.0 kHz
Frame rate : 31.250 FPS (1536 SPF)
Compression mode : Lossy
Stream size : 372 MiB (2%)
Title : Дубляж [Pifagor]
Language : Russian
Service kind : Complete Main
Default : Yes
Forced : Yes

Audio #2
ID : 3
Format : AC-3
Format/Info : Audio Coding 3
Commercial name : Dolby Digital
Codec ID : A_AC3
Duration : 1 h 55 min
Bit rate mode : Constant
Bit rate : 448 kb/s
Channel(s) : 6 channels
Channel layout : L R C LFE Ls Rs
Sampling rate : 48.0 kHz
Frame rate : 31.250 FPS (1536 SPF)
Compression mode : Lossy
Stream size : 372 MiB (2%)
Title : Дубляж [Pifagor]
Language : Russian
Service kind : Complete Main
Default : No
Forced : No

Audio #3
ID : 4
Format : AC-3
Format/Info : Audio Coding 3
Commercial name : Dolby Digital
Codec ID : A_AC3
Duration : 1 h 55 min
Bit rate mode : Constant
Bit rate : 640 kb/s
Channel(s) : 6 channels
Channel layout : L R C LFE Ls Rs
Sampling rate : 48.0 kHz
Frame rate : 31.250 FPS (1536 SPF)
Compression mode : Lossy
Stream size : 531 MiB (3%)
Title : Original
Language : English
Service kind : Complete Main
Default : No
Forced : No

Text #1
ID : 5
Format : UTF-8
Codec ID : S_TEXT/UTF8
Codec ID/Info : UTF-8 Plain Text
Duration : 1 h 36 min
Bit rate : 2 b/s
Count of elements : 39
Stream size : 1.63 KiB (0%)
Title : Forced
Language : Russian
Default : Yes
Forced : Yes

Text #2
ID : 6
Format : UTF-8
Codec ID : S_TEXT/UTF8
Codec ID/Info : UTF-8 Plain Text
Duration : 1 h 47 min
Bit rate : 98 b/s
Count of elements : 1489
Stream size : 77.4 KiB (0%)
Title : Full
Language : Russian
Default : No
Forced : No

Text #3
ID : 7
Format : UTF-8
Codec ID : S_TEXT/UTF8
Codec ID/Info : UTF-8 Plain Text
Duration : 1 h 50 min
Bit rate : 62 b/s
Count of elements : 1623
Stream size : 51.1 KiB (0%)
Language : English
Default : No
Forced : No

Menu
00:00:00.000 : Chapter 01
00:09:31.446 : Chapter 02
00:16:54.055 : Chapter 03
00:25:04.712 : Chapter 04
00:34:40.704 : Chapter 05
00:42:31.299 : Chapter 06
00:51:19.201 : Chapter 07
01:00:36.800 : Chapter 08
01:09:12.815 : Chapter 09
01:18:36.837 : Chapter 10
01:28:21.713 : Chapter 11
01:38:00.041 : Chapter 12
01:41:52.106 : Chapter 13
01:49:30.355 : Chapter 14




Скачать Воспоминания через торрент https://st-kp-yandex-net.translate.goog/images/film_iphone/iphone360_811078.jpg Скачать, смотреть онлайн Воспоминания бесплантно в хорошем качестве Описание: Недалёкое будущее, Майами почти полностью ушёл под воду из-за глобального потепления. Частный детектив Ник Баннистер с помощью ... 8 10 5
Торрент: Зарегистрирован [2021-11-05 17:06] · скачан: 111 раз
Статус: √ проверено
Размер: 20.14 GB
Как cкачать? Как скачать Воспоминания через торрент | UTorrent

% Раздел Тема Автор DL S | L
Фильмы 2021 [DVDrip, WEB-DLRip, HDrip] (DUB, MVO) [ 1.47 GB ] Воспоминания / Reminiscence | Пифагор | BDRip bober100 Скачать
2 | 0
Фильмы 2021 [DVDrip, WEB-DLRip, HDrip] (DUB, MVO) [ 2.18 GB ] Воспоминания / Reminiscence | Лицензия | BDRip Twi7ter Скачать
7 | 0
Фильмы 2021 [DVDrip, WEB-DLRip, HDrip] (DUB, MVO) [ 1.46 GB ] Воспоминания / Reminiscence | Лицензия | BDRip Twi7ter Скачать
7 | 0
Фильмы 2021 [DVDrip, WEB-DLRip, HDrip] (DUB, MVO) [ 2.19 GB ] Воспоминания / Reminiscence | Пифагор | BDRip bober100 Скачать
1 | 0
Фильмы 2021 [DVDrip, WEB-DLRip, HDrip] (DUB, MVO) [ 2.23 GB ] Воспоминания / Reminiscence | Пифагор | HDRip-AVC Lithuania Скачать
1 | 0
Ultra HD (UHD: 2K, 4K, 8K) [ 48.48 GB ] Воспоминания / Reminiscence | Пифагор | 2160p, (Dolby Vision bober100 Скачать
1 | 0
Ultra HD (UHD: 2K, 4K, 8K) [ 46.03 GB ] Воспоминания / Reminiscence | Пифагор | 2160p bober100 Скачать
1 | 0

28-11-2019 20:33  


Отключить вcю реклaмy на сайте, в т.ч. и в плеере онлайн просмотра!

    Дорогой пользователь! Огромная просьба, поблагодарите релизера, оцените раздачу и оставьте свои комментарий, если Вы скачали Воспоминания через торрент бесплатно!!
    Комментировать посты могут только пользователи прошедшие не сложную регистрацию
    Показать сообщения:    


    Воспоминания через торрент
    Скачать бесплатно Воспоминания
    Воспоминания скачать торрент
    Воспоминания смотреть онлайн
    Cкачать фильм Воспоминания бесплатно
    Воспоминания скачать торрент в хорошем качестве
    Воспоминания смотреть онлайн бесплатно в хорошем качестве
    Вы не можете начинать темы
    Вы не можете отвечать на сообщения
    Вы не можете редактировать свои сообщения
    Вы не можете удалять свои сообщения
    Вы не можете голосовать в опросах
    Вы не можете прикреплять файлы к сообщениям
    Вы можете скачивать файлы
    Воспоминания / Reminiscence [2021, Фантастика, триллер, мелодрама, детектив, UHD BDRip 2160p] Дубляж [Пифагор] смотреть онлайн, скачать торрент picoco.icu