Достать ножи: Стеклянная луковица

MVO

Добыча

Дубляж

Уэнсдэй

1 сезон

Тор

Дубляж

13 клиническая

1 сезон

Жестокая ночь

MVO

Одни из нас

1 сезон

Deluxe

pack

Рекомендуем

30

Пиратка

ВАЖНО

ВАЖНО

Ghostwire

Пиратка

jed

RePack

nioh2

RePack

RDR2

RePack

NEED FOR SPEED™ PAYBACK

RePack

скачать торрент

Кинопоиск HD

Острые козырьки 6 сезон

6 сезон

FAR CRY 6

RePack

скачать торрент

Лицензия

скачать торрент

MVO

1

1 сезон

скачать торрент

1 сезон

скачать торрент

Лицензия

  

Веном 2 / Venom: Let There Be Carnage (Энди Серкис) [2021, Фантастика, боевик, триллер, приключения, WEB-DL-HEVC 2160p, (SDR)] Дубляж [iTunes]

Веном 2 через торрент piratbit.org

Раздают: 1 [ 0 KB/s ]
Размер: 8.85 GB | Добавлен: 1 год 2 мес. назад | Торрент скачан:305 раз
Смотреть онлайн | Скачать | Поддержите нас   

06-11-2021 16:49 Веном 2 Скачать торрент  

Веном 2 | Venom: Let There Be Carnage
Год выпуска: 2021
Страна: США, Великобритания, Канада
Выпущено: Marvel Entertainment, Pascal Pictures, Sony Pictures Entertainment (SPE)
Жанр: Фантастика, боевик, триллер, приключения
Продолжительность: 01:37:16
Перевод: Дублированный | iTunes
Субтитры: Русские, английские

Режиссер: Энди Серкис

rating

В ролях: Том Харди, Вуди Харрельсон, Мишель Уильямс, Наоми Харрис, Рид Скотт, Стивен Грэм, Пегги Лу, Сиан Уэббер, Мишель Гринидж, Роб Боуэн, Лоуренс Спеллман, Литтл Симз, Джек Бандейра, Олумиде Олорунфеми, Скробиус Пип, Амру Аль-Кадхи, Бо Сарджент, Брайан Коупленд, Стюарт Александр, Шон Делани

Описание: Более чем через год после тех событий журналист Эдди Брок пытается приспособиться к жизни в качестве хозяина инопланетного симбиота Венома, который наделяет его сверхчеловеческими способностями. Брок пытается возродить свою карьеру и берет интервью у серийного убийцы Клетуса Касади, который по воле случая становится хозяином Карнажа и сбегает из тюрьмы после неудавшейся казни.

Качество: WEB-DL-HEVC 2160p
Формат: MKV

Видео: MPEG-H HEVC SDR, 3840x2068 (1,85:1), 23.976 fps, 11.9 Mb/s, 10 bit
Аудио 1: AC3, 48.0 kHz, 6 ch, 384 kb/s | RUS [Дубляж, iTunes]
Аудио 2: E-AC3 JOC, 48.0 kHz, 6 ch, 768 kb/s | ENG [Оригинал]
скриншот  скриншот  скриншот  скриншот  

Общее
Уникальный идентификатор : 205695011138353753338126320488180942724 (0x9ABF6B0AFA0D4EDFB8BA998E39890784)
Полное имя : Venom.Let.There.Be.Carnage.(2021).WEB-DL.2160p.SDR.mkv
Формат : Matroska
Версия формата : Version 4 / Version 2
Размер файла : 8,85 Гбайт
Продолжительность : 1 ч. 37 м.
Общий поток : 13,0 Мбит/сек
Дата кодирования : UTC 2021-11-23 11:45:01
Программа кодирования : mkvmerge v8.3.0 ('Over the Horizon') 64bit
Библиотека кодирования : libebml v1.3.1 + libmatroska v1.4.2

Видео
Идентификатор : 1
Формат : HEVC
Формат/Информация : High Efficiency Video Coding
Профиль формата : Main 10@L5@High
Идентификатор кодека : V_MPEGH/ISO/HEVC
Продолжительность : 1 ч. 37 м.
Битрейт : 11,9 Мбит/сек
Ширина : 3 840 пикселей
Высота : 2 068 пикселей
Соотношение сторон : 1,85:1
Режим частоты кадров : Постоянный
Частота кадров : 23,976 кадра/сек
Цветовое пространство : YUV
Субдискретизация насыщенности : 4:2:0
Битовая глубина : 10 бит
Бит/(Пиксели*Кадры) : 0.062
Размер потока : 8,07 Гбайт (91%)
Default : Да
Forced : Нет
Цветовой диапазон : Limited
Основные цвета : BT.709
Характеристики трансфера : BT.709
Коэффициенты матрицы : BT.709

Аудио #1
Идентификатор : 2
Формат : AC-3
Формат/Информация : Audio Coding 3
Коммерческое название : Dolby Digital
Идентификатор кодека : A_AC3
Продолжительность : 1 ч. 37 м.
Вид битрейта : Постоянный
Битрейт : 384 Кбит/сек
Каналы : 6 каналов
Channel layout : L R C LFE Ls Rs
Частота : 48,0 КГц
Частота кадров : 31,250 кадров/сек (1536 SPF)
Метод сжатия : С потерями
Размер потока : 267 Мбайт (3%)
Заголовок : Дубляж (iTunes)
Язык : Russian
Service kind : Complete Main
Default : Да
Forced : Нет

Аудио #2
Идентификатор : 3
Формат : E-AC-3 JOC
Формат/Информация : Enhanced AC-3 with Joint Object Coding
Коммерческое название : Dolby Digital Plus with Dolby Atmos
Идентификатор кодека : A_EAC3
Продолжительность : 1 ч. 37 м.
Вид битрейта : Постоянный
Битрейт : 768 Кбит/сек
Каналы : 6 каналов
Channel layout : L R C LFE Ls Rs
Частота : 48,0 КГц
Частота кадров : 31,250 кадров/сек (1536 SPF)
Метод сжатия : С потерями
Размер потока : 534 Мбайт (6%)
Заголовок : Original
Язык : English
Service kind : Complete Main
Default : Нет
Forced : Нет
Complexity index : 16
Number of dynamic objects : 15
Bed channel count : 1 канал
Bed channel configuration : LFE

Текст #1
Идентификатор : 4
Формат : UTF-8
Идентификатор кодека : S_TEXT/UTF8
Идентификатор кодека/Информация : UTF-8 Plain Text
Продолжительность : 1 ч. 36 м.
Битрейт : 72 бит/сек
Count of elements : 1086
Размер потока : 50,8 Кбайт (0%)
Заголовок : Full (Tatyana Omelchenko)
Язык : Russian
Default : Нет
Forced : Нет

Текст #2
Идентификатор : 5
Формат : UTF-8
Идентификатор кодека : S_TEXT/UTF8
Идентификатор кодека/Информация : UTF-8 Plain Text
Продолжительность : 1 ч. 27 м.
Битрейт : 57 бит/сек
Count of elements : 1290
Размер потока : 36,7 Кбайт (0%)
Заголовок : Full
Язык : English
Default : Нет
Forced : Нет

Текст #3
Идентификатор : 6
Формат : UTF-8
Идентификатор кодека : S_TEXT/UTF8
Идентификатор кодека/Информация : UTF-8 Plain Text
Продолжительность : 1 ч. 36 м.
Битрейт : 79 бит/сек
Count of elements : 1862
Размер потока : 55,9 Кбайт (0%)
Заголовок : SDH
Язык : English
Default : Нет
Forced : Нет

Меню
00:00:00.000 : en:Chapter 1
00:05:25.949 : en:Chapter 2
00:11:33.485 : en:Chapter 3
00:18:22.434 : en:Chapter 4
00:23:00.630 : en:Chapter 5
00:30:27.160 : en:Chapter 6
00:35:03.769 : en:Chapter 7
00:43:09.130 : en:Chapter 8
00:47:27.347 : en:Chapter 9
00:54:53.418 : en:Chapter 10
01:01:32.817 : en:Chapter 11
01:06:19.478 : en:Chapter 12
01:11:49.184 : en:Chapter 13
01:18:03.725 : en:Chapter 14
01:21:52.494 : en:Chapter 15
01:26:41.326 : en:Chapter 16




Скачать Веном 2 через торрент https://i116.fastpic.org/big/2021/1123/2a/11c2f86e55eeb495888f43715f3be82a.jpg Скачать, смотреть онлайн Веном 2 бесплантно в хорошем качестве Описание: Более чем через год после тех событий журналист Эдди Брок пытается приспособиться к жизни в качестве хозяина инопланетного ... 9.6 10 58
Торрент: Зарегистрирован [2021-11-23 14:05] · скачан: 305 раз
Статус: √ проверено
Размер: 8.85 GB
Как cкачать? Как скачать Веном 2 через торрент | UTorrent

% Раздел Тема Автор DL S | L
Фильмы 2021 [DVDrip, WEB-DLRip, HDrip] (DUB, MVO) [ 1.46 GB ] Веном 2 / Venom: Let There Be Carnage | Лицензия Blu-ray 4K EUR | BDRip Twi7ter Скачать
32 | 1



Последний раз редактировалось: bober100 (2021-11-23 14:19), всего редактировалось 3 раз(а)

28-11-2019 20:33  


Отключить вcю реклaмy на сайте, в т.ч. и в плеере онлайн просмотра!

07-11-2021 02:59 Веном 2 Скачать торрент  

мог быть хитом, а получился говном



07-11-2021 04:24 Веном 2 Скачать торрент  

Бред шижофреника с раздвоением личности,



07-11-2021 16:57 Веном 2 Скачать торрент  

По сравнению с первой серией - бред высасанный из пальца



07-11-2021 21:10 Веном 2 Скачать торрент  

Пойдёт, ждём паучка.



    Дорогой пользователь! Огромная просьба, поблагодарите релизера, оцените раздачу и оставьте свои комментарий, если Вы скачали Веном 2 через торрент бесплатно!!
    Комментировать посты могут только пользователи прошедшие не сложную регистрацию
    Показать сообщения:    


    Веном 2 через торрент
    Скачать бесплатно Веном 2
    Веном 2 скачать торрент
    Веном 2 смотреть онлайн
    Cкачать фильм Веном 2 бесплатно
    Веном 2 скачать торрент в хорошем качестве
    Веном 2 смотреть онлайн бесплатно в хорошем качестве
    Вы не можете начинать темы
    Вы не можете отвечать на сообщения
    Вы не можете редактировать свои сообщения
    Вы не можете удалять свои сообщения
    Вы не можете голосовать в опросах
    Вы не можете прикреплять файлы к сообщениям
    Вы можете скачивать файлы
    Веном 2 / Venom: Let There Be Carnage [2021, Фантастика, боевик, триллер, приключения, WEB-DL-HEVC 2160p, ] Дубляж [iTunes] смотреть онлайн, скачать торрент picoco.icu