Достать ножи: Стеклянная луковица

MVO

Добыча

Дубляж

Уэнсдэй

1 сезон

Тор

Дубляж

13 клиническая

1 сезон

Жестокая ночь

MVO

Одни из нас

1 сезон

Deluxe

pack

Рекомендуем

30

Пиратка

ВАЖНО

ВАЖНО

Ghostwire

Пиратка

jed

RePack

nioh2

RePack

RDR2

RePack

NEED FOR SPEED™ PAYBACK

RePack

скачать торрент

Кинопоиск HD

Острые козырьки 6 сезон

6 сезон

FAR CRY 6

RePack

скачать торрент

Лицензия

скачать торрент

MVO

1

1 сезон

скачать торрент

1 сезон

скачать торрент

Лицензия

  

Веном 2 / Venom: Let There Be Carnage (Энди Серкис) [2021, Фантастика, боевик, триллер, приключения, UHD BDRip 2160p] Дубляж [Кинопоиск HD (СинеЛаб СаундМикс)]

Веном 2 через торрент piratbit.org

Раздают: 2 [ 0 KB/s ]
Размер: 16.34 GB | Добавлен: 1 год 1 мес. назад | Торрент скачан:162 раза
Смотреть онлайн | Скачать | Поддержите нас   

06-11-2021 16:57 Веном 2 Скачать торрент  

Веном 2 | Venom: Let There Be Carnage
Год выпуска: 2021
Страна: США, Великобритания, Канада
Выпущено: Marvel Entertainment, Pascal Pictures, Sony Pictures Entertainment (SPE)
Жанр: Фантастика, боевик, триллер, приключения
Продолжительность: 01:37:33
Перевод: Дублированный | Кинопоиск HD (СинеЛаб СаундМикс)
Субтитры: Русские (Forced, full), английские

Режиссер: Энди Серкис

rating

В ролях: Том Харди, Вуди Харрельсон, Мишель Уильямс, Наоми Харрис, Рид Скотт, Стивен Грэм, Пегги Лу, Сиан Уэббер, Мишель Гринидж, Роб Боуэн, Лоуренс Спеллман, Литтл Симз, Джек Бандейра, Олумиде Олорунфеми, Скробиус Пип, Амру Аль-Кадхи, Бо Сарджент, Брайан Коупленд, Стюарт Александр, Шон Делани

Описание: Эдди Брок пытается приспособиться к новой жизни, которую ему приходится делить с Веномом, поселившимся в его теле, мыслях и квартире. Но совместный быт не клеится, отношениям с Энн пришел конец, и с карьерой в журналистике тоже все не гладко. У Эдди появляется шанс реабилитироваться в профессии, сделав интервью с серийным убийцей Клетусом Кэссиди. Когда Кэссиди тоже становится носителем инопланетного симбиота, Брок и Веном вынуждены забыть старые обиды, чтобы выступить против еще более сильного и кровожадного монстра — Карнажа.

Качество: UHD BDRip 2160p
Формат: MKV

Видео: MPEG-H HEVC HDR, 3840x2076, 22.5 Mbit/s, 23.976 fps
Аудио #01: 48 kHz, E-AC3, 5.1, 448 Kbps | Дублированный | Кинопоиск HD (СинеЛаб СаундМикс) | RUS |
Аудио #02: 48 kHz, AC3, 5.1, 448 Kbps | Дублированный | Кинопоиск HD (СинеЛаб СаундМикс)| RUS |
Аудио #03: 48 kHz, AC3, 5.1, 640 Kbps | Оригинал | ENG |
скриншот  скриншот  скриншот  скриншот  скриншот  

General
Unique ID : 83059458515103916444437196728005324751 (0x3E7CAB7A1A2E72B4815C84697AA86FCF)
Complete name : D:VideoVenom.Let.There.Be.Carnage.2021.BDRip.2160p.HDR.seleZen.mkv
Format : Matroska
Format version : Version 4
File size : 16.3 GiB
Duration : 1 h 37 min
Overall bit rate : 24.0 Mb/s
Movie name : Venom Let There Be Carnage 2021 from seleZen
Encoded date : UTC 2021-12-10 07:17:40
Writing application : mkvmerge v59.0.0 ('Shining Star') 64-bit
Writing library : libebml v1.4.2 + libmatroska v1.6.4

Video
ID : 1
Format : HEVC
Format/Info : High Efficiency Video Coding
Format profile : Main 10@L6@Main
HDR format : SMPTE ST 2086, HDR10 compatible
Codec ID : V_MPEGH/ISO/HEVC
Duration : 1 h 37 min
Bit rate : 22.5 Mb/s
Width : 3 840 pixels
Height : 2 076 pixels
Display aspect ratio : 1.85:1
Frame rate mode : Constant
Frame rate : 23.976 (23976/1000) FPS
Color space : YUV
Chroma subsampling : 4:2:0 (Type 2)
Bit depth : 10 bits
Bits/(Pixel*Frame) : 0.118
Stream size : 15.3 GiB (94%)
Title : CHD
Writing library : x265 3.5+10-82786fccc:[Windows][MSVC 1929][64 bit] 10bit
Encoding settings : cpuid=1111039 / frame-threads=6 / numa-pools=36,36 / wpp / no-pmode / no-pme / no-psnr / no-ssim / log-level=2 / input-csp=1 / input-res=3840x2076 / interlace=0 / total-frames=0 / level-idc=0 / high-tier=1 / uhd-bd=0 / ref=6 / no-allow-non-conformance / repeat-headers / annexb / no-aud / no-eob / no-eos / no-hrd / info / hash=0 / no-temporal-layers / no-open-gop / min-keyint=23 / keyint=250 / gop-lookahead=0 / bframes=14 / b-adapt=2 / b-pyramid / bframe-bias=0 / rc-lookahead=75 / lookahead-slices=8 / scenecut=40 / hist-scenecut=0 / radl=0 / no-splice / no-intra-refresh / ctu=32 / min-cu-size=8 / no-rect / no-amp / max-tu-size=32 / tu-inter-depth=1 / tu-intra-depth=1 / limit-tu=0 / rdoq-level=2 / dynamic-rd=0.00 / no-ssim-rd / signhide / no-tskip / nr-intra=0 / nr-inter=0 / no-constrained-intra / no-strong-intra-smoothing / max-merge=3 / limit-refs=1 / no-limit-modes / me=3 / subme=7 / merange=64 / temporal-mvp / no-frame-dup / no-hme / weightp / weightb / no-analyze-src-pics / deblock=0:0 / no-sao / no-sao-non-deblock / rd=4 / selective-sao=0 / no-early-skip / rskip / no-fast-intra / no-tskip-fast / no-cu-lossless / b-intra / no-splitrd-skip / rdpenalty=2 / psy-rd=3.00 / psy-rdoq=4.80 / no-rd-refine / no-lossless / cbqpoffs=0 / crqpoffs=0 / rc=crf / crf=14.5 / qcomp=0.60 / qpstep=4 / stats-write=0 / stats-read=0 / ipratio=1.40 / pbratio=1.30 / aq-mode=1 / aq-strength=1.00 / cutree / zone-count=0 / no-strict-cbr / qg-size=32 / no-rc-grain / qpmax=69 / qpmin=0 / no-const-vbv / sar=0 / overscan=0 / videoformat=5 / range=0 / colorprim=9 / transfer=16 / colormatrix=9 / chromaloc=1 / chromaloc-top=2 / chromaloc-bottom=2 / display-window=0 / master-display=G(8500,39850)B(6550,2300)R(35400,14600)WP(15635,16450)L(10000000,1) / cll=7659,522 / min-luma=0 / max-luma=1023 / log2-max-poc-lsb=8 / vui-timing-info / vui-hrd-info / slices=1 / no-opt-qp-pps / no-opt-ref-list-length-pps / no-multi-pass-opt-rps / scenecut-bias=0.05 / hist-threshold=0.03 / no-opt-cu-delta-qp / aq-motion / hdr10 / hdr10-opt / no-dhdr10-opt / no-idr-recovery-sei / analysis-reuse-level=0 / analysis-save-reuse-level=0 / analysis-load-reuse-level=0 / scale-factor=0 / refine-intra=0 / refine-inter=0 / refine-mv=1 / refine-ctu-distortion=0 / no-limit-sao / ctu-info=0 / no-lowpass-dct / refine-analysis-type=0 / copy-pic=1 / max-ausize-factor=1.0 / no-dynamic-refine / no-single-sei / no-hevc-aq / no-svt / no-field / qp-adaptation-range=1.00 / scenecut-aware-qp=0conformance-window-offsets / right=0 / bottom=0 / decoder-max-rate=0 / no-vbv-live-multi-pass
Language : English
Default : Yes
Forced : No
Color range : Limited
Color primaries : BT.2020
Transfer characteristics : PQ
Matrix coefficients : BT.2020 non-constant
Mastering display color pri : BT.2020
Mastering display luminance : min: 0.0001 cd/m2, max: 1000 cd/m2
Maximum Content Light Level : 7659 cd/m2
Maximum Frame-Average Light : 522 cd/m2

Audio #1
ID : 2
Format : E-AC-3
Format/Info : Enhanced AC-3
Commercial name : Dolby Digital Plus
Codec ID : A_EAC3
Duration : 1 h 37 min
Bit rate mode : Constant
Bit rate : 448 kb/s
Channel(s) : 6 channels
Channel layout : L R C LFE Ls Rs
Sampling rate : 48.0 kHz
Frame rate : 31.250 FPS (1536 SPF)
Compression mode : Lossy
Stream size : 312 MiB (2%)
Title : Дубляж
Language : Russian
Service kind : Complete Main
Default : Yes
Forced : Yes

Audio #2
ID : 3
Format : AC-3
Format/Info : Audio Coding 3
Commercial name : Dolby Digital
Codec ID : A_AC3
Duration : 1 h 37 min
Bit rate mode : Constant
Bit rate : 448 kb/s
Channel(s) : 6 channels
Channel layout : L R C LFE Ls Rs
Sampling rate : 48.0 kHz
Frame rate : 31.250 FPS (1536 SPF)
Compression mode : Lossy
Stream size : 312 MiB (2%)
Title : Дубляж
Language : Russian
Service kind : Complete Main
Default : No
Forced : No

Audio #3
ID : 4
Format : AC-3
Format/Info : Audio Coding 3
Commercial name : Dolby Digital
Codec ID : A_AC3
Duration : 1 h 37 min
Bit rate mode : Constant
Bit rate : 640 kb/s
Channel(s) : 6 channels
Channel layout : L R C LFE Ls Rs
Sampling rate : 48.0 kHz
Frame rate : 31.250 FPS (1536 SPF)
Compression mode : Lossy
Stream size : 445 MiB (3%)
Title : Original
Language : English
Service kind : Complete Main
Default : No
Forced : No

Text #1
ID : 5
Format : UTF-8
Codec ID : S_TEXT/UTF8
Codec ID/Info : UTF-8 Plain Text
Duration : 1 h 36 min
Bit rate : 1 b/s
Count of elements : 24
Stream size : 1.13 KiB (0%)
Title : Forced
Language : Russian
Default : Yes
Forced : Yes

Text #2
ID : 6
Format : UTF-8
Codec ID : S_TEXT/UTF8
Codec ID/Info : UTF-8 Plain Text
Duration : 1 h 36 min
Bit rate : 72 b/s
Count of elements : 1086
Stream size : 50.7 KiB (0%)
Title : Full
Language : Russian
Default : No
Forced : No

Text #3
ID : 7
Format : UTF-8
Codec ID : S_TEXT/UTF8
Codec ID/Info : UTF-8 Plain Text
Duration : 1 h 35 min
Bit rate : 60 b/s
Count of elements : 1495
Stream size : 42.3 KiB (0%)
Title : Full
Language : English
Default : No
Forced : No

Text #4
ID : 8
Format : UTF-8
Codec ID : S_TEXT/UTF8
Codec ID/Info : UTF-8 Plain Text
Duration : 1 h 36 min
Bit rate : 71 b/s
Count of elements : 1860
Stream size : 50.5 KiB (0%)
Title : SDH
Language : English
Default : No
Forced : No

Menu
00:00:00.000 : Chapter 01
00:05:24.991 : Chapter 02
00:09:33.239 : Chapter 03
00:12:20.406 : Chapter 04
00:18:23.436 : Chapter 05
00:23:01.213 : Chapter 06
00:30:17.858 : Chapter 07
00:35:03.601 : Chapter 08
00:39:26.781 : Chapter 09
00:45:35.066 : Chapter 10
00:50:40.329 : Chapter 11
00:55:29.826 : Chapter 12
01:01:01.032 : Chapter 13
01:06:57.639 : Chapter 14
01:14:36.681 : Chapter 15
01:21:57.579 : Chapter 16]




Скачать Веном 2 через торрент https://st-kp-yandex-net.translate.goog/images/film_iphone/iphone360_1227967.jpg Скачать, смотреть онлайн Веном 2 бесплантно в хорошем качестве Описание: Эдди Брок пытается приспособиться к новой жизни, которую ему приходится делить с Веномом, поселившимся в его теле, мыслях и ... 9.8 10 66
Info! Золотая раздача, скачанное не засчитывается.
Торрент: Зарегистрирован [2021-12-10 07:50] · скачан: 162 раз
Статус: √ проверено
Размер: 16.34 GB
Как cкачать? Как скачать Веном 2 через торрент | UTorrent

% Раздел Тема Автор DL S | L
Фильмы 2021 [DVDrip, WEB-DLRip, HDrip] (DUB, MVO) [ 1.46 GB ] Веном 2 / Venom: Let There Be Carnage | Лицензия Blu-ray 4K EUR | BDRip Twi7ter Скачать
55 | 1
Фильмы (WEB-DL 720p, 1080p) [ 5.58 GB ] Веном 2 / Venom: Let There Be Carnage | Jaskier | 1080p bober100 Скачать
5 | 0
Фильмы 2021 [DVDrip, WEB-DLRip, HDrip] (DUB, MVO) [ 2.07 GB ] Веном 2 / Venom: Let There Be Carnage | Лицензия | BDRip-AVC Lithuania Скачать
9 | 0
Фильмы [HD 720p, 1080p] (Хороший звук DUB, MVO) [ 4.48 GB ] Веном 2 / Venom: Let There Be Carnage | Лицензия Blu-ray 4K EUR | 720p bober100 Скачать
4 | 0
Ultra HD (UHD: 2K, 4K, 8K) [ 54.3 GB ] Веном 2 / Venom: Let There Be Carnage | Лицензия Blu-ray 4K EUR | 2160p bober100 Скачать
1 | 0
Ultra HD (UHD: 2K, 4K, 8K) [ 41.83 GB ] Веном 2 / Venom: Let There Be Carnage | Лицензия Blu-ray 4K EUR | 2160p, (Dolby Vision Profile 8 bober100 Скачать
1 | 0
Ultra HD (UHD: 2K, 4K, 8K) [ 45.89 GB ] Веном 2 / Venom: Let There Be Carnage | DUB | 2160p, (Dolby Vision bober100 Скачать
1 | 0



Последний раз редактировалось: bober100 (2021-12-10 07:52), всего редактировалось 2 раз(а)

28-11-2019 20:33  


Отключить вcю реклaмy на сайте, в т.ч. и в плеере онлайн просмотра!

27-11-2021 17:59 Веном 2 Скачать торрент  

картинка нормальная, фильм ерунда.



    Дорогой пользователь! Огромная просьба, поблагодарите релизера, оцените раздачу и оставьте свои комментарий, если Вы скачали Веном 2 через торрент бесплатно!!
    Комментировать посты могут только пользователи прошедшие не сложную регистрацию
    Показать сообщения:    


    Веном 2 через торрент
    Скачать бесплатно Веном 2
    Веном 2 скачать торрент
    Веном 2 смотреть онлайн
    Cкачать фильм Веном 2 бесплатно
    Веном 2 скачать торрент в хорошем качестве
    Веном 2 смотреть онлайн бесплатно в хорошем качестве
    Вы не можете начинать темы
    Вы не можете отвечать на сообщения
    Вы не можете редактировать свои сообщения
    Вы не можете удалять свои сообщения
    Вы не можете голосовать в опросах
    Вы не можете прикреплять файлы к сообщениям
    Вы можете скачивать файлы
    Веном 2 / Venom: Let There Be Carnage [2021, Фантастика, боевик, триллер, приключения, UHD BDRip 2160p] Дубляж [Кинопоиск HD ] смотреть онлайн, скачать торрент picoco.icu