Достать ножи: Стеклянная луковица

MVO

Добыча

Дубляж

Уэнсдэй

1 сезон

Тор

Дубляж

13 клиническая

1 сезон

Жестокая ночь

MVO

Одни из нас

1 сезон

Deluxe

pack

Рекомендуем

30

Пиратка

ВАЖНО

ВАЖНО

Ghostwire

Пиратка

jed

RePack

nioh2

RePack

RDR2

RePack

NEED FOR SPEED™ PAYBACK

RePack

скачать торрент

Кинопоиск HD

Острые козырьки 6 сезон

6 сезон

FAR CRY 6

RePack

скачать торрент

Лицензия

скачать торрент

MVO

1

1 сезон

скачать торрент

1 сезон

скачать торрент

Лицензия

  

Финч / Finch (Мигель Сапочник) [2021, фантастика, драма, HEVC, SDR, WEB-DL 2160p] Дубляж [Apple TV+]

Финч через торрент piratbit.org

Раздают: 1 [ 0 KB/s ]
Размер: 18.43 GB | Добавлен: 1 год 2 мес. назад | Торрент скачан:519 раз
Смотреть онлайн | Скачать | Поддержите нас   

07-11-2021 09:36 Финч Скачать торрент  

Финч
Finch

Страна: Великобритания, США
Жанр: фантастика, драма
Год выпуска: 2021
Продолжительность: 01:55:39

Перевод: Профессиональный (полное дублирование) [Невафильм / Apple TV+]
Субтитры: русские (форсированные, полные, SDH), украинские (полные), английские (полные, SDH)
Оригинальная аудиодорожка: английский

Режиссер: Мигель Сапочник / Miguel Sapochnik

В ролях: Том Хэнкс, Калеб Лэндри Джонс, Лора Каннингэм, Мари Уэйдженман, Оскар Авила

Описание: Постапокалипсис. Инженер-робототехник Финч переживает, что никто не сможет позаботиться о его собаке после смерти. Он строит робота и отправляется в путешествие, обучая своего нового компаньона жизни, любви, дружбе и дает ему понять, что значит быть человеком.



Релиз:

Автор релиза: stalkerok
За звук спасибо EniaHD

Сэмпл

Качество видео: WEB-DL 2160p | Исходник: Finch.2021.2160p.ATVP.WEB-DL.DDP5.1.Atmos.HEVC-TEPES
Формат видео: MKV
Видео кодек: HEVC
Аудио кодек: E-AC3
Видео: V_MPEGH/ISO/HEVC, 20503 Кбит/сек, 3840x1608 (2.40:1), 23,976 кадр/сек
Аудио №1: E-AC3 ATMOS, 768 Кбит/сек, 48 КГц, 5.1 - русский
Аудио №2: E-AC3 ATMOS, 768 Кбит/сек, 48 КГц, 5.1 - русский | Тифлокомментирование
Аудио №3: E-AC3 ATMOS, 768 Кбит/сек, 48 КГц, 5.1 - английский
General
Unique ID : 331992690302443457588297942139377885841 (0xF9C377632E0ECA393751F48AC58D2291)
Complete name : J:\Finch.2021\Finch.2021.2160p.ATVP.WEB-DL.DDP5.1.Atmos.HEVC.Rus.Eng.stalkerok.New-Team.mkv
Format : Matroska
Format version : Version 4
File size : 18.4 GiB
Duration : 1 h 55 min
Overall bit rate : 22.8 Mb/s
Movie name : Finch (2021)
Encoded date : UTC 2021-11-07 09:09:22
Writing application : mkvmerge v62.0.0 ('Apollo') 64-bit
Writing library : libebml v1.4.2 + libmatroska v1.6.4

Video
ID : 1
Format : HEVC
Format/Info : High Efficiency Video Coding
Format profile : Main 10@L5@High
Codec ID : V_MPEGH/ISO/HEVC
Duration : 1 h 55 min
Bit rate : 20.5 Mb/s
Width : 3 840 pixels
Height : 1 608 pixels
Display aspect ratio : 2.40:1
Frame rate mode : Constant
Frame rate : 23.976 FPS
Color space : YUV
Chroma subsampling : 4:2:0
Bit depth : 10 bits
Bits/(Pixel*Frame) : 0.138
Stream size : 16.6 GiB (90%)
Title : Finch.2021.2160p.ATVP.WEB-DL.DDP5.1.Atmos.HEVC-TEPES
Language : English
Default : Yes
Forced : No
Color range : Limited
Color primaries : BT.709
Transfer characteristics : BT.709
Matrix coefficients : BT.709

Audio #1
ID : 2
Format : E-AC-3 JOC
Format/Info : Enhanced AC-3 with Joint Object Coding
Commercial name : Dolby Digital Plus with Dolby Atmos
Codec ID : A_EAC3
Duration : 1 h 55 min
Bit rate mode : Constant
Bit rate : 768 kb/s
Channel(s) : 6 channels
Channel layout : L R C LFE Ls Rs
Sampling rate : 48.0 kHz
Frame rate : 31.250 FPS (1536 SPF)
Compression mode : Lossy
Stream size : 635 MiB (3%)
Language : Russian
Service kind : Complete Main
Default : Yes
Forced : No
Complexity index : 16
Number of dynamic objects : 15
Bed channel count : 1 channel
Bed channel configuration : LFE

Audio #2
ID : 3
Format : E-AC-3 JOC
Format/Info : Enhanced AC-3 with Joint Object Coding
Commercial name : Dolby Digital Plus with Dolby Atmos
Codec ID : A_EAC3
Duration : 1 h 55 min
Bit rate mode : Constant
Bit rate : 768 kb/s
Channel(s) : 6 channels
Channel layout : L R C LFE Ls Rs
Sampling rate : 48.0 kHz
Frame rate : 31.250 FPS (1536 SPF)
Compression mode : Lossy
Stream size : 635 MiB (3%)
Title : Audio Description
Language : Russian
Service kind : Complete Main
Default : No
Forced : No
Complexity index : 16
Number of dynamic objects : 15
Bed channel count : 1 channel
Bed channel configuration : LFE

Audio #3
ID : 4
Format : E-AC-3 JOC
Format/Info : Enhanced AC-3 with Joint Object Coding
Commercial name : Dolby Digital Plus with Dolby Atmos
Codec ID : A_EAC3
Duration : 1 h 55 min
Bit rate mode : Constant
Bit rate : 768 kb/s
Channel(s) : 6 channels
Channel layout : L R C LFE Ls Rs
Sampling rate : 48.0 kHz
Frame rate : 31.250 FPS (1536 SPF)
Compression mode : Lossy
Stream size : 635 MiB (3%)
Language : English
Service kind : Complete Main
Default : No
Forced : No
Complexity index : 16
Number of dynamic objects : 15
Bed channel count : 1 channel
Bed channel configuration : LFE

Text #1
ID : 5
Format : UTF-8
Codec ID : S_TEXT/UTF8
Codec ID/Info : UTF-8 Plain Text
Duration : 1 h 46 min
Bit rate : 2 b/s
Count of elements : 51
Stream size : 1.94 KiB (0%)
Title : Forced
Language : Russian
Default : Yes
Forced : No

Text #2
ID : 6
Format : UTF-8
Codec ID : S_TEXT/UTF8
Codec ID/Info : UTF-8 Plain Text
Duration : 1 h 53 min
Bit rate : 54 b/s
Count of elements : 1038
Stream size : 45.2 KiB (0%)
Language : Russian
Default : No
Forced : No

Text #3
ID : 7
Format : UTF-8
Codec ID : S_TEXT/UTF8
Codec ID/Info : UTF-8 Plain Text
Duration : 1 h 48 min
Bit rate : 67 b/s
Count of elements : 1262
Stream size : 53.4 KiB (0%)
Title : SDH
Language : Russian
Default : No
Forced : No

Text #4
ID : 8
Format : UTF-8
Codec ID : S_TEXT/UTF8
Codec ID/Info : UTF-8 Plain Text
Duration : 1 h 53 min
Bit rate : 52 b/s
Count of elements : 1030
Stream size : 43.4 KiB (0%)
Language : Ukrainian
Default : No
Forced : No

Text #5
ID : 9
Format : UTF-8
Codec ID : S_TEXT/UTF8
Codec ID/Info : UTF-8 Plain Text
Duration : 1 h 45 min
Bit rate : 35 b/s
Count of elements : 986
Stream size : 27.5 KiB (0%)
Language : English
Default : No
Forced : No

Text #6
ID : 10
Format : UTF-8
Codec ID : S_TEXT/UTF8
Codec ID/Info : UTF-8 Plain Text
Duration : 1 h 47 min
Bit rate : 41 b/s
Count of elements : 1210
Stream size : 32.6 KiB (0%)
Title : SDH
Language : English
Default : No
Forced : No



Скачать Финч через торрент http://i6-imageban-ru.translate.goog/out/2017/09/18/2ff75c0c358795c5946784cc1680714d.png Скачать, смотреть онлайн Финч бесплантно в хорошем качестве Описание: Постапокалипсис. Инженер-робототехник Финч переживает, что никто не сможет позаботиться о его собаке после смерти. Он строит ... 10 10 12
Info! Золотая раздача, скачанное не засчитывается.
Торрент: Зарегистрирован [2021-11-07 09:36] · скачан: 519 раз
Статус: √ проверено
Размер: 18.43 GB
Как cкачать? Как скачать Финч через торрент | UTorrent

% Раздел Тема Автор DL S | L
Фильмы (WEB-DL 720p, 1080p) [ 6.56 GB ] Финч / Finch | DUB | 1080p bober100 Скачать
3 | 0
Фильмы 2021 [DVDrip, WEB-DLRip, HDrip] (DUB, MVO) [ 2.18 GB ] Финч / Finch | Дубляж - | DLRip Twi7ter Скачать
22 | 0
Фильмы (WEB-DL 720p, 1080p) [ 2.89 GB ] Финч / Finch | DUB | 720p bober100 Скачать
3 | 0
Фильмы (WEB-DL 720p, 1080p) [ 9.99 GB ] Финч / Finch | DUB | 1080p bober100 Скачать
4 | 0
Фильмы 2021 [DVDrip, WEB-DLRip, HDrip] (DUB, MVO) [ 1.46 GB ] Финч / Finch | Дубляж - | DLRip Twi7ter Скачать
103 | 2
Фильмы 2021 [DVDrip, WEB-DLRip, HDrip] (DUB, MVO) [ 2.17 GB ] Финч / Finch | | DLRip-AVC sokol_ok Скачать
3 | 0
Фильмы 2021 [DVDrip, WEB-DLRip, HDrip] (DUB, MVO) [ 2.14 GB ] Финч / Finch | DUB | DLRip-AVC Lithuania Скачать
2 | 0

28-11-2019 20:33  


Отключить вcю реклaмy на сайте, в т.ч. и в плеере онлайн просмотра!

29-11-2021 17:20 Финч Скачать торрент  

не читает ,жалко!



    Дорогой пользователь! Огромная просьба, поблагодарите релизера, оцените раздачу и оставьте свои комментарий, если Вы скачали Финч через торрент бесплатно!!
    Комментировать посты могут только пользователи прошедшие не сложную регистрацию
    Показать сообщения:    


    Финч через торрент
    Скачать бесплатно Финч
    Финч скачать торрент
    Финч смотреть онлайн
    Cкачать фильм Финч бесплатно
    Финч скачать торрент в хорошем качестве
    Финч смотреть онлайн бесплатно в хорошем качестве
    Вы не можете начинать темы
    Вы не можете отвечать на сообщения
    Вы не можете редактировать свои сообщения
    Вы не можете удалять свои сообщения
    Вы не можете голосовать в опросах
    Вы не можете прикреплять файлы к сообщениям
    Вы можете скачивать файлы
    Финч / Finch [2021, фантастика, драма, HEVC, SDR, WEB-DL 2160p] Дубляж [Apple TV picoco.icu